<?xml version="1.0" standalone="no"?> <!DOCTYPE svg PUBLIC "-//W3C//DTD SVG 1.0//EN" "http://www.w3.org/TR/2001/REC-SVG-20010904/DTD/svg10.dtd" > <svg xmlns="http://www.w3.org/2000/svg" width="100%" height="100%">
<defs >
<font id="UbuntuTitling-Bold" horiz-adv-x="511" ><font-face
    font-family="Ubuntu Titling Rg"
    units-per-em="1000"
    panose-1="2 0 0 0 0 0 0 0 0 0"
    ascent="905"
    descent="-221"
    alphabetic="0" />
<missing-glyph horiz-adv-x="364" d="M33 0V666H298V0H33ZM66 33H265V633H66V33Z" />
<glyph unicode=" " glyph-name="space" horiz-adv-x="256" />
<glyph unicode="!" glyph-name="exclam" horiz-adv-x="256" d="M77 603Q77 621 93 635T136 650Q162 650 177 636T193 603V231Q193 213 178 199T136 184Q109 184 93 198T77 231V603ZM77 62Q77 80 93 94T136 109Q162 109 177 95T193 62V38Q193 20 178 6T136 -9Q109
-9 93 5T77 38V62Z" />
<glyph unicode="&quot;" glyph-name="quotedbl" horiz-adv-x="377" d="M77 611Q77 626 90 638T126 650Q147 650 160 638T173 611L164 478Q164 466 153 456T124 446Q105 446 94 456T83 478L77 611ZM225 611Q225 626 238 638T274 650Q295 650 308 638T321 611L312
478Q312 466 301 456T272 446Q253 446 242 456T231 478L225 611Z" />
<glyph unicode="#" glyph-name="numbersign" horiz-adv-x="730" d="M362 148H260L239 28Q236 11 221 -1T182 -9Q158 -4 146 13T136 47L154 148H97Q81 148 69 161T57 196Q57 219 69 232T97 246H171L200 409H125Q109 409 97 422T85 457Q85 480 97 493T125 507H218L237
612Q240 629 257 641T298 648Q321 643 332 627T341 593L325 507H426L445 612Q448 629 465 641T506 648Q528 643 539 627T549 593L533 507H587Q610 507 622 494T635 457Q635 435 623 422T587 409H515L486 246H559Q582 246 594 233T607 196Q607 175 595 162T559 148H468L447
28Q444 11 429 -1T390 -9Q366 -4 354 13T344 47L362 148ZM278 246H379L408 409H307L278 246Z" />
<glyph unicode="$" glyph-name="dollar" horiz-adv-x="553" d="M251 690Q251 709 263 719T290 729T317 719T330 690L328 640Q363 633 389 620T433 591T460 560T469 533Q469 510 458 496T419 481Q403 481 391 488T367 504Q360 509 350 516T326 528L321 354Q352
342 383 328T438 292T478 240T493 166Q493 88 445 41T312 -14L311 -53Q311 -73 299 -82T272 -92T245 -83T232 -53L233 -9Q207 -4 178 6T125 30T86 64T70 108Q70 155 122 155Q139 154 152 146T176 127Q197 106 235 94L240 271Q208 284 177 299T120 335T79 387T63
459Q63 539 112 589T250 645L251 690ZM181 464Q181 436 198 419T243 387L247 538Q217 534 199 515T181 464ZM376 159Q376 185 360 203T318 236L314 88Q343 93 359 110T376 159Z" />
<glyph unicode="%" glyph-name="percent" horiz-adv-x="791" d="M52 521Q52 550 64 574T96 614T144 640T202 649Q232 649 259 640T306 615T338 574T350 521V455Q350 426 339 402T307 362T259 336T202 327Q171 327 144 336T97 361T64 402T52 455V521ZM441 184Q441
213 452 237T484 277T532 303T590 312Q621 312 648 303T695 278T726 237T738 184V118Q738 89 727 65T695 25T648 -1T590 -10Q559 -10 532 -1T485 24T453 65T441 118V184ZM500 624Q508 640 528 647T572 642Q595 631 600 613T597 580L287 18Q278 1 258 -6T215 -3Q192
9 186 27T188 62L500 624ZM148 459Q148 436 163 423T202 409Q223 409 238 422T254 459V517Q254 540 239 553T202 567Q179 567 164 554T148 517V459ZM537 122Q537 99 552 86T590 72Q611 72 627 85T643 122V180Q643 203 627 216T590 230Q568 230 553 217T537 180V122Z"
/>
<glyph unicode="&amp;" glyph-name="ampersand" horiz-adv-x="591" d="M493 559Q499 544 498 531T489 509T470 495T447 489Q433 489 419 494T394 514Q374 539 346 545T290 551Q272 551 253 546T219 528T193 497T183 451Q183 414 207 390T270 366H551Q571 366 581
352T591 321T581 289T551 275H512L513 120Q513 84 504 66T473 31Q453 21 434 14T394 1T349 -7T295 -10Q252 -10 208 -1T128 30T70 85T47 170Q47 228 79 264T162 321Q118 338 92 372T66 455Q66 502 86 538T138 599T212 637T295 650Q321 650 351 646T408 632T458
605T493 559ZM389 101Q401 108 405 119T409 148V275H273Q254 272 234 264T198 244T172 214T161 174Q161 150 173 134T204 107T248 93T296 88Q327 88 346 90T389 101Z" />
<glyph unicode="&apos;" glyph-name="quotesingle" horiz-adv-x="223" d="M60 605Q60 627 76 638T111 650T147 639T163 605L150 452Q150 440 139 430T110 420Q91 420 80 430T69 452L60 605Z" />
<glyph unicode="(" glyph-name="parenleft" horiz-adv-x="430" d="M328 -42Q341 -62 339 -80T325 -109T296 -121T261 -107Q248 -95 234 -78T207 -40T182 1T164 43Q123 158 122 278T163 513Q170 533 181 554T206 596T235 633T264 664Q280 679 297 679T325 667T338
637T328 599Q318 584 308 565T288 524T270 482T257 441Q233 350 236 254T272 70Q282 43 298 11T328 -42Z" />
<glyph unicode=")" glyph-name="parenright" horiz-adv-x="430" d="M133 -42Q147 -21 163 11T189 70Q221 158 224 254T204 441Q199 460 191 481T174 524T154 564T133 599Q120 618 122 636T136 666T163 678T197 664Q211 651 226 634T254 596T279 555T298 513Q340
398 339 278T297 43Q290 23 279 2T255 -40T227 -77T199 -107Q182 -122 165 -122T137 -110T123 -80T133 -42Z" />
<glyph unicode="*" glyph-name="asterisk" horiz-adv-x="516" d="M212 507L210 610Q210 631 224 641T257 651T289 641T304 610L299 505L399 551Q418 560 434 552T457 528T461 496T438 470L327 426L409 340Q423 324 419 307T402 280T370 268T338 282L257 380L176
282Q162 266 144 267T113 279T95 307T105 340L187 427L78 470Q58 479 54 496T57 528T81 551T117 551L212 507ZM257 438Q257 438 258 439H257V438Z" />
<glyph unicode="+" glyph-name="plus" horiz-adv-x="505" d="M298 330H419Q443 330 456 318T469 283Q469 263 456 251T419 238H298V123Q298 100 285 88T249 75Q227 75 215 87T202 123V238H72Q56 238 44 250T31 283Q31 305 43 317T72 330H202V453Q202 468 214 480T249
492Q272 492 285 480T298 453V330Z" />
<glyph unicode="," glyph-name="comma" horiz-adv-x="243" d="M69 44Q69 76 86 91T126 107Q149 107 166 95T184 53Q184 -17 156 -69T62 -155Q36 -165 18 -158T-8 -135T-11 -102T18 -70Q51 -53 60 -22T69 44Z" />
<glyph unicode="-" glyph-name="hyphen" horiz-adv-x="446" d="M309 347Q337 347 351 333T366 293Q366 270 352 256T309 241H131Q113 241 99 255T84 293Q84 318 98 332T131 347H309Z" />
<glyph unicode="." glyph-name="period" horiz-adv-x="243" d="M55 64Q55 83 72 98T120 113Q147 113 164 98T182 64V39Q182 20 165 5T120 -10Q90 -10 73 5T55 39V64Z" />
<glyph unicode="/" glyph-name="slash" horiz-adv-x="391" d="M247 621Q253 638 273 646T320 645Q344 637 353 619T356 583L136 20Q130 3 111 -5T66 -6Q41 3 31 22T27 58L247 621Z" />
<glyph unicode="0" glyph-name="zero" horiz-adv-x="610" d="M63 400Q63 445 75 489T115 569T190 627T304 650Q372 650 418 628T493 570T534 490T547 400V240Q547 186 531 140T483 61T407 9T304 -10Q247 -10 202 9T126 61T79 140T63 240V400ZM178 229Q178 163
208 131T304 98Q373 98 401 130T430 229V410Q430 476 402 508T304 541Q236 541 207 509T178 410V229Z" />
<glyph unicode="1" glyph-name="one" horiz-adv-x="376" d="M246 640Q271 640 286 626T302 593V37Q302 19 287 5T246 -10Q218 -10 202 4T186 37V534H88Q62 534 47 548T31 586Q31 611 46 625T88 640H246Z" />
<glyph unicode="2" glyph-name="two" horiz-adv-x="543" d="M481 473Q481 432 464 397T419 331T358 270T294 213T239 157T204 99H445Q464 99 479 87T494 48Q494 24 479 12T445 0H126Q107 0 92 12T76 48Q76 50 76 51T76 55Q77 107 99 150T154 228T223 295T293 354T346
410T367 467Q367 504 350 525T284 547Q260 547 244 544T216 532T192 511T168 480Q158 466 139 459T96 463Q76 473 72 488T72 519Q75 533 88 555T126 598T191 634T285 650Q339 650 376 637T437 600T471 544T481 473Z" />
<glyph unicode="3" glyph-name="three" horiz-adv-x="541" d="M212 276Q186 276 171 288T155 323Q155 348 170 360T212 372H253Q297 372 324 392T351 442V461Q351 497 327 522T253 548Q224 548 201 538T163 518Q146 507 138 504T112 501Q95 501 84 512T72 543Q72
560 86 579T124 613T182 639T253 650Q311 650 352 636T418 599T455 544T467 479V464Q467 421 442 385T372 329Q431 312 459 273T488 183V174Q488 140 478 107T441 48T368 6T251 -10Q214 -10 178 -1T114 25T69 60T52 99Q52 119 64 132T93 146Q110 146 123 143T153
126Q173 108 199 99T251 89Q314 89 344 114T374 176V193Q374 226 344 251T253 276H212Z" />
<glyph unicode="4" glyph-name="four" horiz-adv-x="582" d="M344 239V364Q344 382 360 396T404 411Q429 411 444 397T460 364V239H492Q550 239 550 187Q550 164 536 151T492 137H460V37Q460 19 445 5T404 -10Q376 -10 360 4T344 37V137H78Q60 137 46 151T31 189Q31
196 31 203T37 218L245 629Q256 645 275 649T319 640Q340 628 346 608T342 572L169 239H344Z" />
<glyph unicode="5" glyph-name="five" horiz-adv-x="506" d="M186 537L171 397H267Q356 397 405 347T454 209V186Q454 151 442 116T402 52T333 6T233 -10Q194 -10 161 -1T104 23T66 57T52 97Q52 117 63 129T92 141Q109 141 122 136T152 119Q167 109 185 102T232
95Q283 95 309 118T336 182V213Q336 258 310 279T232 300H136Q97 297 79 310T64 359L94 640H364Q388 640 407 626T426 584Q426 567 411 552T373 537H186Z" />
<glyph unicode="6" glyph-name="six" horiz-adv-x="560" d="M287 -10Q225 -10 181 11T108 67T66 150T52 251V387Q52 440 67 488T112 572T189 629T297 650Q336 650 369 641T426 617T464 583T478 543Q478 523 467 512T438 501Q421 501 408 505T378 521Q363 531 344
538T296 545Q239 545 204 509T169 394V357Q194 380 231 393T320 407Q410 406 458 356T507 219V186Q507 151 495 116T455 52T387 6T287 -10ZM172 197Q180 143 209 119T286 95Q337 95 363 118T390 182V223Q390 310 286 310Q264 310 244 303T208 281T183 245T174 196L172
197Z" />
<glyph unicode="7" glyph-name="seven" horiz-adv-x="492" d="M392 640Q419 640 433 626T449 587Q452 571 446 559L338 340Q315 292 303 247T291 139L292 37Q292 19 277 5T235 -10Q207 -10 191 4T175 37L174 136Q173 193 186 258T232 381L318 534H78Q52 534 37
548T21 586Q21 611 36 625T78 640H392Z" />
<glyph unicode="8" glyph-name="eight" horiz-adv-x="575" d="M288 650Q346 650 387 636T453 599T490 544T502 479V470Q502 427 477 388T406 329Q466 310 494 272T523 183V174Q523 140 512 107T474 48T402 6T289 -10Q221 -10 176 6T103 48T64 107T52 174V183Q52
234 80 272T169 329Q124 349 99 388T73 470V479Q73 513 84 544T122 598T188 636T288 650ZM288 550Q239 550 215 528T190 469V448Q190 433 197 419T217 394T248 376T288 369Q309 369 327 376T358 394T378 419T385 448V469Q385 505 361 527T288 550ZM289 86Q346 86
376 113T406 176V193Q406 226 377 252T289 279Q229 279 199 253T169 193V176Q169 140 200 113T289 86Z" />
<glyph unicode="9" glyph-name="nine" horiz-adv-x="560" d="M273 650Q335 650 379 629T451 572T493 488T507 387V253Q507 200 492 152T447 68T370 11T262 -10Q223 -10 190 -1T133 23T96 57T82 97Q82 117 93 128T122 139Q139 139 152 135T182 119Q197 109 216
102T264 95Q321 95 356 131T391 246V266L384 270Q360 247 325 232T239 217Q195 217 160 233T101 276T65 340T52 420V439Q52 474 64 512T104 581T173 631T273 650ZM274 314Q296 314 316 321T353 342T379 376T390 424Q378 545 274 545Q248 545 229 537T197 514T177
482T170 443V416Q170 371 196 343T274 314Z" />
<glyph unicode=":" glyph-name="colon" horiz-adv-x="243" d="M55 421Q55 440 72 455T120 470Q147 470 164 455T182 421V396Q182 377 165 362T120 347Q90 347 73 362T55 396V421ZM55 64Q55 83 72 98T120 113Q147 113 164 98T182 64V39Q182 20 165 5T120 -10Q90
-10 73 5T55 39V64Z" />
<glyph unicode=";" glyph-name="semicolon" horiz-adv-x="243" d="M69 44Q69 76 86 91T126 107Q149 107 166 95T184 53Q184 -17 156 -69T62 -155Q36 -165 18 -158T-8 -135T-11 -102T18 -70Q51 -53 60 -22T69 44ZM55 421Q55 440 72 455T120 470Q147 470 164 455T182
421V396Q182 377 165 362T120 347Q90 347 73 362T55 396V421Z" />
<glyph unicode="&lt;" glyph-name="less" horiz-adv-x="639" d="M561 111Q582 94 585 77T580 46T550 27T506 25Q400 77 297 129T87 234Q52 253 52 279T87 324L502 510Q526 515 546 509T575 489T582 459T556 424L229 277L561 111Z" />
<glyph unicode="=" glyph-name="equal" horiz-adv-x="580" d="M454 427Q480 427 493 414T507 377Q507 355 494 342T454 329H128Q111 329 98 342T84 377Q84 400 97 413T128 427H454ZM454 236Q480 236 493 223T507 186Q507 165 494 152T454 138H128Q111 138 98 151T84
186Q84 209 97 222T128 236H454Z" />
<glyph unicode="&gt;" glyph-name="greater" horiz-adv-x="639" d="M79 424Q53 444 53 467Q53 478 58 487T73 503T95 512T123 510Q231 458 338 406T552 301Q586 282 586 256Q586 244 578 232T552 211L128 25Q113 21 101 23T78 31T63 47T57 68Q57 91 83 111L411
258Q244 340 79 424Z" />
<glyph unicode="?" glyph-name="question" horiz-adv-x="526" d="M174 199Q174 245 186 276T217 329T257 367T297 398T327 429T340 470Q340 509 318 528T257 547Q233 547 216 544T185 534T159 515T134 485Q124 471 105 464T62 468Q42 478 38 493T38 524Q41 538
55 559T96 601T163 635T258 650Q312 650 350 634T411 592T444 533T455 465Q455 430 443 406T411 363T370 331T329 301T298 266T285 218V201Q285 187 271 171T232 154Q205 153 190 167T174 199ZM243 89Q262 89 277 77T292 38Q292 14 277 2T243 -10H223Q203 -10 188
2T173 38Q173 64 188 76T223 89H243Z" />
<glyph unicode="@" glyph-name="at" horiz-adv-x="875" d="M597 70Q641 70 670 89T718 139T744 212T752 301Q752 344 742 389T701 471T617 531T477 555Q393 555 328 529T216 454T146 338T122 187Q122 111 145 57T210 -33T307 -85T428 -102L472 -101Q492 -101 503
-113T514 -140T501 -167T461 -179H430Q355 -179 285 -159T159 -96T71 15T38 180Q38 277 67 360T152 503T291 598T479 632Q577 632 644 605T754 532T814 426T833 301Q833 239 819 184T774 86T697 20T586 -5Q574 -5 561 -4T535 4T514 22T500 56L494 58Q488 48 478
38T454 18T421 3T380 -3Q349 -3 322 7T273 40T240 98T228 181Q228 248 248 298T300 383T375 434T462 452Q500 452 531 441T583 409T614 360T621 298L597 70ZM414 90Q428 90 441 96T465 111T486 129T501 146L516 285Q520 316 505 337T454 358Q406 358 381 318T348
201Q343 150 358 120T414 90Z" />
<glyph unicode="A" glyph-name="A" horiz-adv-x="592" d="M555 55Q560 38 549 20T511 -6Q486 -12 467 -2T442 25L406 141H188L151 24Q145 7 126 -3T82 -7Q55 0 44 18T37 54L233 608Q238 625 255 637T298 650Q322 650 340 638T363 608L555 55ZM219 239H375L298
487L219 239Z" />
<glyph unicode="B" glyph-name="B" horiz-adv-x="581" d="M70 593Q70 611 86 625T130 640H280Q342 640 385 625T456 585T496 529T509 463V456Q509 412 489 379T420 326Q484 307 507 269T531 181V174Q531 140 521 109T484 53T414 15T301 0H130Q103 0 87 17T70 52V593ZM187
96H301Q358 96 386 118T414 176V191Q414 227 388 251T301 275H187V96ZM187 540V367H301Q347 371 370 391T393 444V463Q393 499 365 519T280 540H187Z" />
<glyph unicode="C" glyph-name="C" horiz-adv-x="499" d="M63 407Q63 456 78 500T123 578T197 630T298 650Q337 650 370 641T427 617T465 583T479 543Q479 523 467 512T439 501Q422 501 409 505T379 521Q363 531 345 538T297 545Q249 545 215 513T180 414V225Q180
158 214 127T297 95Q326 95 343 99T377 113Q388 120 396 124T410 131T424 135T440 136Q460 136 469 125T479 96Q479 75 466 56T428 23T370 -1T298 -10Q241 -10 197 9T123 62T78 139T63 233V407Z" />
<glyph unicode="D" glyph-name="D" horiz-adv-x="593" d="M75 593Q75 611 91 625T135 640H264Q332 640 382 619T464 561T512 475T528 369V258Q528 204 513 157T465 75T382 20T264 0H135Q107 0 91 14T75 47V593ZM192 534V106H264Q333 106 372 142T411 247V379Q411
452 372 493T264 534H192Z" />
<glyph unicode="E" glyph-name="E" horiz-adv-x="520" d="M416 640Q444 640 458 626T473 586Q473 563 459 549T416 534H192V377H342Q371 377 385 363T400 323Q400 300 386 286T342 271H192V106H416Q444 106 458 92T473 52Q473 29 459 15T416 0H135Q108 0 92 14T75
47V593Q75 611 91 625T135 640H416Z" />
<glyph unicode="F" glyph-name="F" horiz-adv-x="493" d="M406 640Q434 640 448 626T463 586Q463 563 449 549T406 534H192V367H343Q371 367 385 353T400 313Q400 290 386 276T343 261H192V37Q192 19 177 5T135 -10Q108 -10 92 4T75 37V593Q75 611 91 625T135 640H406Z" />
<glyph unicode="G" glyph-name="G" horiz-adv-x="591" d="M298 284Q298 307 312 321T351 336H474Q502 336 516 324T531 285V90Q519 70 502 52T460 20T401 -2T318 -10Q256 -10 209 9T129 61T80 138T63 232V407Q63 456 79 500T127 578T206 630T315 650Q372 650 417
634T485 593Q503 573 503 554T489 523T454 508T409 521Q392 532 365 538T314 545Q257 545 219 514T180 414V224Q180 191 190 167T220 126T263 103T317 95Q346 95 363 99T397 113L415 126V232H351Q327 232 313 246T298 284Z" />
<glyph unicode="H" glyph-name="H" horiz-adv-x="631" d="M440 261H192V37Q192 19 177 5T135 -10Q108 -10 92 4T75 37V603Q75 621 91 635T135 650Q161 650 176 636T192 603V367H440V603Q440 621 456 635T500 650Q525 650 541 636T557 603V37Q557 19 541 5T500
-10Q472 -10 456 4T440 37V261Z" />
<glyph unicode="I" glyph-name="I" horiz-adv-x="267" d="M75 603Q75 621 91 635T135 650Q160 650 176 636T192 603V38Q192 20 176 6T135 -9Q107 -9 91 5T75 38V603Z" />
<glyph unicode="J" glyph-name="J" horiz-adv-x="385" d="M66 103Q83 103 96 99T131 95Q166 95 180 111T194 167V603Q194 621 210 635T251 650Q279 650 295 636T311 603V171Q311 72 265 32T131 -9Q109 -9 89 -5T54 6T29 26T20 55Q20 77 31 90T66 103Z" />
<glyph unicode="K" glyph-name="K" horiz-adv-x="547" d="M75 603Q75 621 91 635T135 650Q160 650 176 636T192 603V362H223L415 633Q421 640 430 644T451 649T474 647T496 636Q515 619 514 596T499 559L320 320L523 77Q536 64 533 43T510 4Q491 -11 469 -10T435
6L229 260H192V37Q192 19 176 5T135 -10Q107 -10 91 4T75 37V603Z" />
<glyph unicode="L" glyph-name="L" horiz-adv-x="473" d="M75 603Q75 621 91 635T135 650Q160 650 176 636T192 603V106H405Q433 106 447 92T462 52Q462 29 448 15T405 0H129Q103 2 89 16T75 47V603Z" />
<glyph unicode="M" glyph-name="M" horiz-adv-x="736" d="M368 181Q344 181 328 194T303 223L192 456V37Q192 19 177 5T135 -10Q108 -10 92 4T75 37V603Q75 621 91 635T135 650H152Q178 650 195 641T221 615L368 319L515 615Q525 631 542 641T585 651L601 650Q629
650 645 636T661 603V37Q661 19 645 5T601 -10Q576 -10 561 4T545 37V456L433 223Q425 208 409 195T368 181Z" />
<glyph unicode="N" glyph-name="N" horiz-adv-x="651" d="M75 603Q75 621 91 635T135 650Q157 650 172 639T191 612L460 219V603Q460 621 476 635T520 650Q545 650 560 636T576 603V37Q576 19 561 5T520 -10Q498 -10 484 -2T463 21L460 26L192 415V37Q192 19 177
5T135 -10Q108 -10 92 4T75 37V603Z" />
<glyph unicode="O" glyph-name="O" horiz-adv-x="636" d="M65 390Q65 445 80 492T126 575T204 630T317 650Q383 650 430 630T509 575T556 493T571 390V250Q571 195 556 148T510 65T431 10T317 -10Q252 -10 205 10T126 65T80 147T65 250V390ZM180 249Q180 167 217
133T317 98Q382 98 418 132T454 249V390Q454 472 418 506T317 541Q254 541 217 507T180 390V249Z" />
<glyph unicode="P" glyph-name="P" horiz-adv-x="557" d="M73 593Q73 611 89 625T133 640H264Q327 640 373 624T449 580T493 513T507 431V420Q507 382 494 347T452 285T377 242T264 225H190V37Q190 19 175 5T133 -10Q106 -10 90 7T73 42V593ZM190 540V321H264Q297
321 321 329T360 350T383 380T391 415V438Q391 481 361 510T264 540H190Z" />
<glyph unicode="Q" glyph-name="Q" horiz-adv-x="636" d="M65 390Q65 445 80 492T126 575T204 630T317 650Q383 650 430 630T509 575T556 493T571 390V250Q571 203 560 162T527 88T471 32T391 -2Q391 -41 405 -60T464 -80Q479 -80 494 -77T522 -72T545 -76T562
-99Q568 -117 563 -132T544 -158T510 -175T464 -181Q371 -181 324 -137T274 -7Q220 -1 181 21T116 78T78 156T65 250V390ZM180 249Q180 167 217 133T317 98Q382 98 418 132T454 249V390Q454 472 418 506T317 541Q254 541 217 507T180 390V249Z" />
<glyph unicode="R" glyph-name="R" horiz-adv-x="564" d="M73 593Q73 611 89 625T133 640H274Q341 640 388 626T463 587T505 526T518 446V439Q518 388 495 352T412 293L523 66Q534 52 526 32T495 -3Q473 -14 452 -9T422 12L310 252Q302 251 293 251T274 251H190V35Q190
17 175 4T133 -10Q106 -10 90 6T73 40V593ZM190 540V347H274Q342 347 371 370T401 429V448Q401 491 372 515T274 540H190Z" />
<glyph unicode="S" glyph-name="S" horiz-adv-x="523" d="M266 -10Q251 -10 229 -7T183 4T136 21T93 44T62 75T50 113Q50 160 102 160Q119 159 132 151T156 132Q173 116 204 104T270 91Q310 91 333 108T356 164Q356 196 335 216T280 253T210 284T139 321T85 377T63
463Q63 505 77 539T117 598T181 636T267 650Q317 650 354 638T417 607T456 570T469 537Q469 514 458 500T419 485Q403 485 391 492T367 508Q355 518 330 531T263 544Q227 544 204 525T181 468Q181 436 202 417T256 383T327 353T397 316T451 259T473 171Q473 87
418 39T266 -10Z" />
<glyph unicode="T" glyph-name="T" horiz-adv-x="519" d="M445 640Q474 640 488 626T503 586Q503 563 489 549T445 534H314V37Q314 19 299 5T257 -10Q229 -10 213 4T197 37V534H79Q53 534 38 548T22 586Q22 611 37 625T79 640H445Z" />
<glyph unicode="U" glyph-name="U" horiz-adv-x="650" d="M321 -10Q255 -10 208 9T131 60T87 135T73 225V603Q73 621 89 635T133 650Q159 650 174 636T190 603V226Q190 99 321 99Q451 99 451 226V603Q451 621 467 635T509 650Q536 650 552 636T569 603V225Q569
178 555 135T511 60T434 9T321 -10Z" />
<glyph unicode="V" glyph-name="V" horiz-adv-x="582" d="M358 32Q353 15 335 3T293 -10Q268 -10 251 2T228 32L32 587Q27 604 38 622T77 648Q101 654 120 644T146 617L293 159L437 616Q442 633 461 643T506 647Q533 640 544 622T550 586L358 32Z" />
<glyph unicode="W" glyph-name="W" horiz-adv-x="823" d="M301 32Q296 15 279 3T236 -10Q211 -10 194 2T171 32L52 587Q47 604 58 622T96 648Q121 654 140 644T166 617L241 163L350 601Q365 650 410 650Q439 650 452 638T473 601L582 163L657 617Q662 634 682
644T726 648Q753 641 764 623T771 587L652 32Q647 15 629 3T587 -10Q562 -10 545 2T522 32L411 446L301 32Z" />
<glyph unicode="X" glyph-name="X" horiz-adv-x="548" d="M274 408L403 631Q414 645 436 648T481 638Q502 625 506 605T501 570L344 319L499 71Q510 56 505 36T477 0Q456 -13 435 -9T403 10L274 230L146 10Q135 -5 114 -9T71 0Q48 15 43 35T49 71L203 319L48 570Q37
584 42 604T68 638Q91 652 113 649T146 631L274 408Z" />
<glyph unicode="Y" glyph-name="Y" horiz-adv-x="550" d="M214 239L33 570Q22 584 27 604T53 638Q76 652 98 649T131 631L275 348L420 631Q431 645 453 648T498 638Q519 625 523 605T518 570L330 228V38Q330 20 315 6T274 -9Q246 -9 230 5T214 38V239Z" />
<glyph unicode="Z" glyph-name="Z" horiz-adv-x="540" d="M342 541H102Q83 541 68 553T53 589Q53 615 68 627T102 640H441Q460 640 475 628T491 589Q491 566 477 554H478L190 99H451Q470 99 485 87T500 48Q500 24 485 12T451 0H90Q70 0 55 12T40 48Q40 72 54 86L342 541Z" />
<glyph unicode="[" glyph-name="bracketleft" horiz-adv-x="351" d="M253 664Q285 662 297 646T308 611Q306 594 294 581T253 566H209V-31H248Q280 -33 292 -50T301 -87Q299 -103 287 -115T248 -129H149Q125 -123 113 -110T101 -72V606Q101 632 113 645T149 664H253Z" />
<glyph unicode="\" glyph-name="backslash" horiz-adv-x="391" d="M356 58Q362 41 353 22T317 -6Q293 -14 273 -6T247 20L27 583Q21 600 30 618T63 645Q89 654 109 646T136 621L356 58Z" />
<glyph unicode="]" glyph-name="bracketright" horiz-adv-x="351" d="M197 664Q222 658 234 645T246 606V-72Q246 -97 234 -110T197 -129H99Q72 -127 60 -115T45 -87Q42 -68 54 -51T99 -31H138V566H93Q65 568 53 581T39 611Q37 629 49 645T93 664H197Z" />
<glyph unicode="^" glyph-name="asciicircum" horiz-adv-x="470" d="M167 615Q172 629 186 639T220 650Q240 650 255 640T274 615L372 390Q377 376 367 361T335 339Q315 334 299 342T278 365L220 516L163 365Q158 351 142 343T105 339Q83 345 74 360T69 390L167 615Z" />
<glyph unicode="_" glyph-name="underscore" horiz-adv-x="481" d="M411 -1Q439 -1 453 -15T468 -55Q468 -78 454 -92T411 -107H66Q48 -107 34 -93T19 -55Q19 -30 33 -16T66 -1H411Z" />
<glyph unicode="`" glyph-name="grave" horiz-adv-x="294" d="M50 601Q29 610 25 630T29 668T55 696T93 697L234 622Q251 613 255 598T253 567Q245 551 229 546T201 545L50 601Z" />
<glyph unicode="a" glyph-name="a" horiz-adv-x="580" d="M446 -15Q421 -15 406 -1T390 32V48L381 51Q372 38 362 27T336 8T301 -5T250 -10Q202 -10 166 7T107 53T73 117T61 191V279Q61 321 76 362T120 436T193 489T296 510Q351 510 391 495T456 454T494 391T506
312V32Q506 14 490 0T446 -15ZM390 310Q390 360 366 380T296 401Q270 401 249 392T213 366T190 328T181 283V187Q181 151 208 125T275 99Q297 99 317 106T354 128T380 165T390 216V310Z" />
<glyph unicode="b" glyph-name="b" horiz-adv-x="582" d="M190 461L196 458Q216 483 246 496T314 510Q369 510 409 493T475 444T514 370T527 276V218Q527 171 514 130T472 57T403 7T305 -12Q247 -12 204 3T131 45T88 108T73 188V633Q73 651 89 665T133 680Q159
680 174 666T190 633V461ZM295 401Q251 401 222 377T190 299V184Q190 139 223 118T305 97Q352 97 380 129T409 214V274Q409 336 378 368T295 401Z" />
<glyph unicode="c" glyph-name="c" horiz-adv-x="470" d="M55 292Q55 337 67 376T107 446T176 493T277 510Q328 510 365 497T425 460Q438 447 439 428T431 393T402 372T354 380Q339 388 321 394T277 401Q225 401 199 370T173 286V214Q173 161 199 130T277 99Q303
99 324 104T357 117Q378 128 396 125T426 109T439 79T428 43Q409 17 368 4T277 -10Q218 -10 176 7T107 54T68 123T55 208V292Z" />
<glyph unicode="d" glyph-name="d" horiz-adv-x="580" d="M259 511Q300 511 331 495T383 455L390 456V639Q390 657 405 671T446 686Q474 686 490 672T506 639V208Q506 161 492 121T451 52T382 7T285 -10Q226 -10 183 8T110 57T67 129T52 218V283Q52 330 64 371T101
444T165 493T259 511ZM285 99Q329 99 359 124T390 204V300Q388 353 358 377T285 402Q233 402 202 371T170 287V214Q170 161 201 130T285 99Z" />
<glyph unicode="e" glyph-name="e" horiz-adv-x="537" d="M484 307Q484 260 466 241T406 222H169V196Q169 148 198 119T282 90Q309 90 331 93T367 103Q381 110 394 117T418 124Q438 124 449 112T461 81Q461 65 447 49T409 20T353 -1T283 -10Q232 -10 190 6T118
49T70 112T53 190V296Q53 340 69 379T115 447T184 493T272 510Q329 510 369 492T434 444T472 378T484 307ZM271 413Q226 413 200 385T169 309H373V324Q373 365 345 389T271 413Z" />
<glyph unicode="f" glyph-name="f" horiz-adv-x="366" d="M101 500V530Q101 624 146 662T280 700Q302 700 322 696T357 684T382 663T391 636Q391 614 380 601T345 588Q328 588 315 592T280 596Q245 596 231 582T217 534V500H294Q311 500 324 488T337 455Q337 433
324 421T294 408H217V37Q217 19 202 5T161 -10Q133 -10 117 4T101 37V408H66Q49 408 36 420T23 455Q23 475 36 487T66 500H101Z" />
<glyph unicode="g" glyph-name="g" horiz-adv-x="568" d="M498 0Q498 -56 480 -96T432 -163T361 -203T277 -216Q239 -216 209 -212T166 -203Q133 -182 133 -152Q133 -130 146 -117T188 -104Q199 -104 219 -108T277 -112Q300 -112 319 -108T352 -91T374 -57T382
0V49L378 51Q362 24 332 7T251 -10Q157 -10 106 48T55 209V268Q55 315 69 359T113 436T185 490T288 511Q343 511 383 497T448 457T486 396T498 321V0ZM277 99Q319 99 349 123T382 200V325Q382 364 358 383T288 402Q262 402 241 392T205 364T182 323T173 272V205Q173
99 277 99Z" />
<glyph unicode="h" glyph-name="h" horiz-adv-x="590" d="M517 37Q517 19 500 5T457 -10Q431 -10 415 4T399 37V295Q399 343 373 372T295 402Q251 402 222 378T190 300V37Q190 19 175 5T133 -10Q106 -10 90 4T73 37V633Q73 651 89 665T133 680Q159 680 174 666T190
633V446L196 445Q214 474 245 492T320 511Q375 511 412 494T473 447T506 378T517 296V37Z" />
<glyph unicode="i" glyph-name="i" horiz-adv-x="277" d="M80 463Q80 481 96 495T140 510Q166 510 181 496T197 463V37Q197 19 182 5T140 -10Q113 -10 97 4T80 37V463ZM80 643Q80 661 96 675T140 690Q166 690 181 676T197 643V619Q197 601 182 587T140 572Q113
572 97 586T80 619V643Z" />
<glyph unicode="j" glyph-name="j" horiz-adv-x="310" d="M-15 -94Q2 -94 16 -98T50 -102Q85 -102 99 -86T113 -30V463Q113 481 128 495T170 510Q198 510 214 496T230 463V-26Q230 -125 184 -165T50 -206Q29 -206 9 -203T-26 -193T-51 -173T-60 -142Q-60 -120
-49 -107T-15 -94ZM112 643Q112 661 128 675T172 690Q198 690 213 676T229 643V619Q229 601 214 587T172 572Q144 572 128 586T112 619V643Z" />
<glyph unicode="k" glyph-name="k" horiz-adv-x="525" d="M73 633Q73 651 89 665T133 680Q159 680 174 666T190 633V320H236L381 496Q395 509 419 509T462 492Q479 473 476 450T458 415L329 273L488 74Q500 60 496 39T469 2Q449 -12 428 -9T395 8L234 218H190V38Q190
20 175 6T133 -9Q106 -9 90 5T73 38V633Z" />
<glyph unicode="l" glyph-name="l" horiz-adv-x="277" d="M80 633Q80 651 96 665T140 680Q166 680 181 666T197 633V37Q197 19 182 5T140 -10Q113 -10 97 4T80 37V633Z" />
<glyph unicode="m" glyph-name="m" horiz-adv-x="845" d="M579 509Q637 509 675 493T735 447T766 377T775 289V37Q775 19 759 5T715 -10Q690 -10 675 4T659 37V293Q659 348 639 374T569 400Q482 400 482 293V33L480 24L478 21Q477 19 477 18T474 14Q467 4 455
-2T427 -10H422Q399 -10 384 1T365 28Q365 28 364 30V293Q364 400 277 400Q227 400 207 374T187 293V37Q187 19 172 5T130 -10Q103 -10 87 4T70 37V289Q70 336 79 376T110 446T171 492T267 509Q325 509 362 488T422 431Q445 466 482 487T579 509Z" />
<glyph unicode="n" glyph-name="n" horiz-adv-x="584" d="M292 510Q347 510 388 495T458 453T500 386T514 300V37Q514 19 497 5T454 -10Q428 -10 412 4T396 37V294Q396 349 367 375T292 401Q247 401 217 375T187 294V37Q187 19 172 5T130 -10Q103 -10 87 4T70
37V290Q70 337 84 377T126 447T195 493T292 510Z" />
<glyph unicode="o" glyph-name="o" horiz-adv-x="564" d="M55 281Q55 328 68 369T109 442T180 492T282 510Q340 510 383 492T454 443T495 370T509 281V212Q509 167 496 127T454 57T383 10T282 -8Q223 -8 180 9T110 57T69 127T55 212V281ZM173 211Q173 156 202
126T282 96Q333 96 362 126T391 211V283Q391 343 362 374T282 405Q231 405 202 374T173 283V211Z" />
<glyph unicode="p" glyph-name="p" horiz-adv-x="582" d="M190 42V-173Q190 -191 175 -205T133 -220Q106 -220 90 -206T73 -173V310Q73 353 87 389T129 453T198 495T295 510Q353 510 397 492T469 442T512 369T527 280V221Q527 174 515 133T478 60T414 10T320 -9Q279
-9 250 5T198 44L190 42ZM190 207Q190 152 220 126T295 100Q346 100 377 132T409 217V284Q409 337 378 369T295 401Q250 401 220 380T190 314V207Z" />
<glyph unicode="q" glyph-name="q" horiz-adv-x="580" d="M446 -220Q421 -220 406 -206T390 -173V45L384 47Q362 21 332 6T259 -10Q204 -10 165 8T101 58T64 131T52 220V280Q52 327 66 368T110 441T182 491T285 510Q340 510 381 495T450 453T492 390T506 310V-173Q506
-191 490 -205T446 -220ZM285 99Q327 99 357 123T390 200V314Q390 359 360 380T285 401Q233 401 202 369T170 284V216Q170 163 201 131T285 99Z" />
<glyph unicode="r" glyph-name="r" horiz-adv-x="393" d="M286 401Q264 401 246 398T216 386T197 360T190 316V37Q190 19 175 5T133 -10Q106 -10 90 4T73 37V312Q73 407 124 458T286 510Q337 510 363 490T384 434Q381 416 371 409T347 400T317 399T286 401Z" />
<glyph unicode="s" glyph-name="s" horiz-adv-x="472" d="M55 62Q52 68 51 77T52 95T60 112T76 124Q90 130 100 130T119 127T134 118T148 107Q177 85 239 85Q271 85 290 99T310 136Q310 159 292 172T247 195T188 214T129 240T83 283T65 353Q65 423 114 466T249
510Q287 510 315 504T361 488T390 469T405 449Q412 435 411 417T395 388Q375 375 358 379T327 392Q319 396 302 403T249 411Q217 411 201 396T184 357Q184 338 201 328T245 309T303 291T360 264T404 217T422 142Q422 72 373 31T239 -10Q208 -10 179 -5T125 11T82
34T55 62Z" />
<glyph unicode="t" glyph-name="t" horiz-adv-x="414" d="M103 500V603Q103 621 119 635T163 650Q189 650 204 636T220 603V500H294Q311 500 324 488T337 455Q337 433 324 421T294 408H220V166Q220 124 231 109T263 94Q283 94 297 97T329 101Q352 101 362 89T373
54Q373 35 363 23T337 4T299 -7T253 -10Q175 -10 139 30T103 170V408H63Q46 408 33 420T20 455Q20 475 33 487T63 500H103Z" />
<glyph unicode="u" glyph-name="u" horiz-adv-x="584" d="M292 -10Q237 -10 196 6T126 52T84 122T70 210V462Q70 480 86 494T130 509Q156 509 171 495T187 462V206Q187 151 217 125T292 99Q337 99 366 125T396 206V462Q396 480 412 494T454 509Q480 509 497 495T514
462V210Q514 163 500 123T458 53T389 7T292 -10Z" />
<glyph unicode="v" glyph-name="v" horiz-adv-x="540" d="M335 32Q330 15 312 3T270 -10Q245 -10 228 2T205 32L44 446Q39 463 50 481T88 507Q113 513 132 503T157 476L270 136L382 476Q388 493 407 503T451 507Q478 500 489 482T496 446L335 32Z" />
<glyph unicode="w" glyph-name="w" horiz-adv-x="831" d="M568 -10Q509 -10 473 10T416 66Q394 31 358 11T264 -10Q209 -10 172 6T113 52T82 122T73 210V463Q73 481 89 495T133 510Q159 510 174 496T190 463V206Q190 151 209 125T274 99Q319 99 338 125T357 206V467Q357
476 363 484T378 497T397 506T417 510Q437 510 456 498T475 464V206Q475 151 494 125T558 99Q602 99 622 125T642 206V463Q642 481 657 495T698 510Q726 510 742 496T758 463V210Q758 163 749 123T718 53T660 7T568 -10Z" />
<glyph unicode="x" glyph-name="x" horiz-adv-x="530" d="M265 338L373 492Q384 506 405 509T450 499Q472 486 476 466T470 431L335 249L469 71Q480 56 475 36T447 0Q426 -13 405 -9T373 10L265 160L157 10Q147 -5 126 -9T83 0Q60 15 55 35T61 71L194 249L60 431Q49
445 53 465T80 499Q103 513 124 510T157 492L265 338Z" />
<glyph unicode="y" glyph-name="y" horiz-adv-x="576" d="M386 468Q385 483 401 497T445 511Q471 511 487 497T503 464V-35Q502 -83 486 -118T441 -176T374 -210T292 -221Q243 -221 214 -217T171 -208Q138 -187 138 -157Q138 -135 152 -122T194 -109Q205 -109
231 -113T292 -117Q339 -117 362 -96T386 -35V41L381 43Q359 17 331 4T259 -9Q204 -9 168 6T111 50T82 116T73 201V464Q73 482 90 496T133 511Q159 511 175 497T191 464V197Q191 150 212 125T285 100Q321 100 348 117T386 172V468Z" />
<glyph unicode="z" glyph-name="z" horiz-adv-x="543" d="M309 401H102Q83 401 68 413T52 449Q52 475 67 487T102 500H419Q438 500 453 488T468 449Q468 428 455 415L456 414L213 99H441Q460 99 475 87T490 48Q490 24 475 12T441 0H102Q83 0 68 12T52 48Q52 72
66 86L309 401Z" />
<glyph unicode="{" glyph-name="braceleft" horiz-adv-x="426" d="M214 292Q247 282 270 248T293 143Q293 110 284 81T275 21Q275 -5 282 -25T321 -45Q339 -45 355 -52T372 -85Q372 -100 364 -109T344 -124T318 -131T292 -133Q248 -133 219 -114T175 -63T157 6T163
81Q181 157 163 203T94 249Q71 249 58 262T44 294Q44 313 57 326T94 339Q144 339 162 385T163 507Q154 544 156 582T174 651T219 701T292 721Q304 721 318 719T344 712T364 698T372 674Q372 647 356 640T321 633Q290 633 283 617T275 578Q275 540 284 509T293 445Q293
374 270 340T214 296V292Z" />
<glyph unicode="|" glyph-name="bar" horiz-adv-x="243" d="M63 659Q63 677 79 691T123 706Q148 706 164 692T180 659V-92Q180 -110 164 -124T123 -139Q95 -139 79 -125T63 -92V659Z" />
<glyph unicode="}" glyph-name="braceright" horiz-adv-x="426" d="M212 296Q179 306 156 340T133 445Q133 478 142 507T151 567Q151 593 144 613T105 633Q87 633 71 640T55 673Q55 688 63 697T83 712T108 719T134 721Q178 721 207 702T252 651T270 582T264 507Q245
431 264 385T332 339Q355 339 368 326T382 294Q382 275 369 262T332 249Q283 249 264 203T264 81Q273 44 271 6T252 -63T207 -113T134 -133Q122 -133 109 -131T83 -124T63 -110T55 -86Q55 -59 71 -52T105 -45Q136 -45 143 -29T151 10Q151 48 142 79T133 143Q133
214 156 248T212 292V296Z" />
<glyph unicode="~" glyph-name="asciitilde" horiz-adv-x="707" d="M178 315Q173 308 172 296T165 272T147 252T110 243Q88 243 70 258T52 302Q52 331 65 356T100 400T154 429T222 440Q270 440 303 423T364 386T418 348T480 331Q506 331 517 345T537 377T557 408T595
423Q615 423 632 411T654 372Q654 339 638 314T597 270T539 243T475 234Q441 234 417 241T373 261T338 286T308 311T277 330T240 338Q222 338 206 334T178 315Z" />
<glyph unicode="&#xa1;" glyph-name="exclamdown" horiz-adv-x="256" d="M187 -100Q187 -118 171 -132T128 -147Q102 -147 87 -133T71 -100V272Q71 290 86 304T128 319Q155 319 171 305T187 272V-100ZM187 441Q187 423 171 409T128 394Q102 394 87 408T71 441V465Q71
483 86 497T128 512Q155 512 171 498T187 465V441Z" />
<glyph unicode="&#xa2;" glyph-name="cent" horiz-adv-x="520" d="M234 559Q234 584 250 597T285 610T321 597T337 559V507Q391 496 424 470T457 411Q457 395 453 384T433 363Q423 357 413 357T394 361T375 370T359 381Q345 390 328 396T285 403Q233 403 207 366T181
266V234Q181 172 207 135T285 97Q311 97 327 101T357 114Q367 120 376 126T395 137T413 142T433 137Q449 128 453 117T457 89Q457 57 424 30T337 -7V-81Q337 -107 321 -119T286 -132T250 -120T234 -81V-7Q189 1 157 23T104 78T73 152T63 238V262Q63 307 73 347T103
421T156 476T234 507V559Z" />
<glyph unicode="&#xa3;" glyph-name="sterling" horiz-adv-x="461" d="M5 258Q-20 258 -32 275T-45 312T-33 349T5 366H54V420Q54 480 65 522T102 591T166 630T260 643Q315 643 354 625T423 581Q441 565 441 546T428 512T395 495T348 506Q343 509 336 515T318
527T293 538T260 543Q217 543 199 515T180 420V366H291Q316 366 328 349T340 312T328 275T291 258H180V191Q180 168 178 151T172 123Q168 110 165 100H422Q442 100 453 85T464 50T455 16T422 0H44Q23 0 11 10T-3 35T2 67T27 99Q37 107 42 114T50 131T53 159T54
204V258H5Z" />
<glyph unicode="&#xa5;" glyph-name="yen" horiz-adv-x="534" d="M161 327L21 569Q10 583 15 603T41 637Q64 651 86 648T119 630L268 358L418 630Q429 644 451 647T496 637Q517 624 521 604T516 569L375 327H430Q476 327 476 284Q476 266 464 255T430 244H327L323
236V188H430Q452 188 464 177T476 145Q476 127 464 116T430 105H323V38Q323 20 308 6T267 -9Q239 -9 223 5T207 38V105H91Q76 105 65 116T54 145Q54 165 65 176T91 188H207V244H91Q76 244 65 255T54 284Q54 304 65 315T91 327H161Z" />
<glyph unicode="&#xa8;" glyph-name="dieresis" horiz-adv-x="432" d="M43 587Q43 606 60 621T108 636Q135 636 152 621T170 587V562Q170 543 153 528T108 513Q78 513 61 528T43 562V587ZM263 587Q263 606 280 621T328 636Q355 636 372 621T390 587V562Q390 543
373 528T328 513Q298 513 281 528T263 562V587Z" />
<glyph unicode="&#xa9;" glyph-name="copyright" horiz-adv-x="874" d="M110 253Q110 181 133 121T199 17T302 -51T437 -76Q511 -76 571 -52T674 17T740 121T763 253Q763 322 740 381T675 483T572 550T437 574Q362 574 302 550T199 483T133 381T110 253ZM21 253Q21
338 50 411T134 537T265 620T437 650Q531 650 608 620T739 537T823 411T853 253Q853 165 824 91T740 -37T608 -121T437 -152Q342 -152 266 -122T135 -37T51 91T21 253ZM251 319Q251 358 263 392T298 452T355 493T435 508Q465 508 491 501T536 483T565 456T576 425Q576
409 567 401T545 392Q532 392 522 395T498 408Q485 416 471 421T434 426Q396 426 370 402T343 324V177Q343 124 369 100T434 75Q457 75 470 78T496 89Q514 100 522 103T546 107Q561 107 568 98T576 76Q576 60 566 45T536 19T491 0T435 -7Q390 -7 356 8T298 49T263
109T251 183V319Z" />
<glyph unicode="&#xab;" glyph-name="guillemotleft" horiz-adv-x="562" d="M285 101Q292 83 285 66T262 37T228 25T192 37L63 218Q54 233 53 245T59 273L187 444Q203 462 224 462T261 449T284 418T279 380L185 248L285 101ZM505 101Q512 83 505 66T482 37T448
25T412 37L283 218Q274 233 273 245T279 273L407 444Q423 462 444 462T481 449T504 418T499 380L405 248L505 101Z" />
<glyph unicode="&#xae;" glyph-name="registered" horiz-adv-x="874" d="M110 253Q110 181 133 121T199 17T302 -51T437 -76Q511 -76 571 -52T674 17T740 121T763 253Q763 325 740 385T675 489T572 557T437 582Q362 582 302 558T199 489T133 385T110 253ZM21 253Q21
341 50 415T134 543T265 627T437 658Q531 658 608 628T739 543T823 415T853 253Q853 165 824 91T740 -37T608 -121T437 -152Q342 -152 266 -122T135 -37T51 91T21 253ZM285 458Q285 472 297 482T330 493H436Q486 493 521 483T577 454T608 408T618 348V343Q618 305
601 278T539 234L621 64Q629 53 624 38T600 13Q584 5 569 9T546 24L462 203Q456 202 450 202T436 202H373V41Q373 27 362 18T330 8Q310 8 298 19T285 45V458ZM373 418V274H436Q487 274 508 291T530 335V350Q530 382 509 400T436 418H373Z" />
<glyph unicode="&#xaf;" glyph-name="overscore" horiz-adv-x="545" d="M418 637Q444 637 458 624T472 587Q472 565 458 552T418 538H103Q86 538 72 551T58 587Q58 610 72 623T103 637H418Z" />
<glyph unicode="&#xb0;" glyph-name="degree" horiz-adv-x="339" d="M21 504Q21 534 33 560T65 605T112 636T171 647Q201 647 227 636T274 606T306 560T318 504Q318 476 306 451T274 406T228 376T171 364Q140 364 113 375T65 406T33 450T21 504ZM108 504Q108 479
126 463T171 447Q197 447 214 463T231 504Q231 529 214 546T171 564Q145 564 127 547T108 504Z" />
<glyph unicode="&#xb4;" glyph-name="acute" horiz-adv-x="294" d="M66 545Q54 540 39 547T15 571Q7 587 12 602T29 623L170 698Q191 707 209 697T235 668T241 630T216 601L66 545Z" />
<glyph unicode="&#xb6;" glyph-name="paragraph" horiz-adv-x="529" d="M364 640Q392 640 408 626T424 593V42Q424 24 408 7T364 -10Q339 -10 324 4T308 37V225H276Q220 225 181 241T118 285T84 347T73 420V427Q73 471 85 509T121 577T184 623T276 640H364Z" />
<glyph unicode="&#xb7;" glyph-name="middot" horiz-adv-x="243" d="M55 340Q55 359 72 374T120 389Q147 389 164 374T182 340V315Q182 296 165 281T120 266Q90 266 73 281T55 315V340Z" />
<glyph unicode="&#xb8;" glyph-name="cedilla" horiz-adv-x="304" d="M204 37Q224 14 240 -16T253 -81Q251 -109 233 -129T188 -158T130 -166T70 -146Q56 -137 53 -123T54 -98T71 -81T100 -82Q113 -88 125 -91T148 -95T166 -89T176 -72Q182 -51 173 -28T137 36L204 37Z" />
<glyph unicode="&#xbb;" glyph-name="guillemotright" horiz-adv-x="567" d="M57 385Q49 403 56 420T79 449T113 461T149 449L278 268Q287 253 288 241T282 213L154 42Q137 24 117 24T80 37T57 68T62 106L156 238L57 385ZM283 385Q275 403 282 420T305 449T339
461T375 449L504 268Q513 253 514 241T508 213L380 42Q363 24 343 24T306 37T283 68T288 106L382 238L283 385Z" />
<glyph unicode="&#xbf;" glyph-name="questiondown" horiz-adv-x="526" d="M334 301Q334 255 322 224T291 171T251 133T211 102T181 71T168 30Q168 -9 190 -28T251 -47Q275 -47 292 -44T323 -34T349 -15T374 15Q384 29 403 36T446 32Q466 22 470 7T470 -24Q467
-38 453 -59T412 -101T345 -135T250 -150Q196 -150 158 -134T97 -92T64 -33T53 35Q53 70 65 94T97 137T138 169T179 199T210 234T223 282V299Q223 313 237 329T276 346Q303 347 318 333T334 301ZM265 411Q246 411 231 423T216 462Q216 486 231 498T265 510H285Q305
510 320 498T335 462Q335 436 320 424T285 411H265Z" />
<glyph unicode="&#xc0;" glyph-name="Agrave" horiz-adv-x="592" d="M555 55Q560 38 549 20T511 -6Q486 -12 467 -2T442 25L406 141H188L151 24Q145 7 126 -3T82 -7Q55 0 44 18T37 54L233 608Q238 625 255 637T298 650Q322 650 340 638T363 608L555 55ZM219 239H375L298
487L219 239ZM130 774Q109 783 105 803T109 841T135 869T173 870L314 795Q331 786 335 771T333 740Q325 724 309 719T281 718L130 774Z" />
<glyph unicode="&#xc1;" glyph-name="Aacute" horiz-adv-x="592" d="M555 55Q560 38 549 20T511 -6Q486 -12 467 -2T442 25L406 141H188L151 24Q145 7 126 -3T82 -7Q55 0 44 18T37 54L233 608Q238 625 255 637T298 650Q322 650 340 638T363 608L555 55ZM219 239H375L298
487L219 239ZM306 720Q294 715 279 722T255 746Q247 762 252 777T269 798L410 873Q431 882 449 872T475 843T481 805T456 776L306 720Z" />
<glyph unicode="&#xc2;" glyph-name="Acircumflex" horiz-adv-x="592" d="M555 55Q560 38 549 20T511 -6Q486 -12 467 -2T442 25L406 141H188L151 24Q145 7 126 -3T82 -7Q55 0 44 18T37 54L233 608Q238 625 255 637T298 650Q322 650 340 638T363 608L555 55ZM219
239H375L298 487L219 239ZM190 709Q176 704 163 709T143 725T135 750T146 777L277 865Q289 871 298 872T321 868L444 781Q459 769 460 754T453 726T430 709T400 713L301 783L190 709Z" />
<glyph unicode="&#xc3;" glyph-name="Atilde" horiz-adv-x="592" d="M555 55Q560 38 549 20T511 -6Q486 -12 467 -2T442 25L406 141H188L151 24Q145 7 126 -3T82 -7Q55 0 44 18T37 54L233 608Q238 625 255 637T298 650Q322 650 340 638T363 608L555 55ZM219 239H375L298
487L219 239ZM229 761Q202 761 192 752T175 732T163 711T138 702Q116 702 104 716T92 750Q92 776 102 796T131 830T172 851T221 858Q250 858 272 847T314 824T352 800T391 789Q412 789 420 798T434 817T447 837T474 847Q493 847 505 835T522 806Q525 782 515 763T488
729T447 706T401 698Q372 698 351 708T310 729T272 751T229 761Z" />
<glyph unicode="&#xc4;" glyph-name="Adieresis" horiz-adv-x="592" d="M555 55Q560 38 549 20T511 -6Q486 -12 467 -2T442 25L406 141H188L151 24Q145 7 126 -3T82 -7Q55 0 44 18T37 54L233 608Q238 625 255 637T298 650Q322 650 340 638T363 608L555 55ZM219
239H375L298 487L219 239ZM123 777Q123 796 140 811T188 826Q215 826 232 811T250 777V752Q250 733 233 718T188 703Q158 703 141 718T123 752V777ZM344 777Q344 796 361 811T409 826Q436 826 453 811T471 777V752Q471 733 454 718T409 703Q379 703 362 718T344
752V777Z" />
<glyph unicode="&#xc5;" glyph-name="Aring" horiz-adv-x="592" d="M555 55Q560 38 549 20T511 -6Q486 -12 467 -2T442 25L406 141H188L151 24Q145 7 126 -3T82 -7Q55 0 44 18T37 54L233 608Q238 625 255 637T298 650Q322 650 340 638T363 608L555 55ZM219 239H375L298
487L219 239ZM191 804Q191 825 199 843T222 875T255 897T297 905Q318 905 337 897T370 876T392 844T401 804Q401 784 393 766T370 735T337 713T297 705Q275 705 256 713T222 734T200 766T191 804ZM253 804Q253 787 266 776T297 764Q315 764 327 775T339 804Q339
821 327 833T297 846Q279 846 266 834T253 804Z" />
<glyph unicode="&#xc7;" glyph-name="Ccedilla" horiz-adv-x="499" d="M63 407Q63 456 78 500T123 578T197 630T298 650Q337 650 370 641T427 617T465 583T479 543Q479 523 467 512T439 501Q422 501 409 505T379 521Q363 531 345 538T297 545Q249 545 215 513T180
414V225Q180 158 214 127T297 95Q326 95 343 99T377 113Q388 120 396 124T410 131T424 135T440 136Q460 136 469 125T479 96Q479 60 441 31T340 -7Q349 -24 354 -42T358 -81Q356 -109 338 -129T293 -158T235 -166T175 -146Q161 -137 158 -123T159 -98T176 -81T205
-82Q218 -88 230 -91T253 -95T271 -89T281 -72Q285 -58 283 -43T269 -8Q219 -4 181 17T116 70T77 144T63 233V407Z" />
<glyph unicode="&#xc8;" glyph-name="Egrave" horiz-adv-x="520" d="M416 640Q444 640 458 626T473 586Q473 563 459 549T416 534H192V377H342Q371 377 385 363T400 323Q400 300 386 286T342 271H192V106H416Q444 106 458 92T473 52Q473 29 459 15T416 0H135Q108
0 92 14T75 47V593Q75 611 91 625T135 640H416ZM108 765Q87 774 83 794T87 832T113 860T151 861L292 786Q309 777 313 762T311 731Q303 715 287 710T259 709L108 765Z" />
<glyph unicode="&#xc9;" glyph-name="Eacute" horiz-adv-x="520" d="M416 640Q444 640 458 626T473 586Q473 563 459 549T416 534H192V377H342Q371 377 385 363T400 323Q400 300 386 286T342 271H192V106H416Q444 106 458 92T473 52Q473 29 459 15T416 0H135Q108
0 92 14T75 47V593Q75 611 91 625T135 640H416ZM284 711Q272 706 257 713T233 737Q225 753 230 768T247 789L388 864Q409 873 427 863T453 834T459 796T434 767L284 711Z" />
<glyph unicode="&#xca;" glyph-name="Ecircumflex" horiz-adv-x="520" d="M416 640Q444 640 458 626T473 586Q473 563 459 549T416 534H192V377H342Q371 377 385 363T400 323Q400 300 386 286T342 271H192V106H416Q444 106 458 92T473 52Q473 29 459 15T416 0H135Q108
0 92 14T75 47V593Q75 611 91 625T135 640H416ZM168 700Q154 695 141 700T121 716T113 741T124 768L255 856Q267 862 276 863T299 859L422 772Q437 760 438 745T431 717T408 700T378 704L279 774L168 700Z" />
<glyph unicode="&#xcb;" glyph-name="Edieresis" horiz-adv-x="520" d="M416 640Q444 640 458 626T473 586Q473 563 459 549T416 534H192V377H342Q371 377 385 363T400 323Q400 300 386 286T342 271H192V106H416Q444 106 458 92T473 52Q473 29 459 15T416 0H135Q108
0 92 14T75 47V593Q75 611 91 625T135 640H416ZM101 768Q101 787 118 802T166 817Q193 817 210 802T228 768V743Q228 724 211 709T166 694Q136 694 119 709T101 743V768ZM322 768Q322 787 339 802T387 817Q414 817 431 802T449 768V743Q449 724 432 709T387 694Q357
694 340 709T322 743V768Z" />
<glyph unicode="&#xcc;" glyph-name="Igrave" horiz-adv-x="267" d="M75 603Q75 621 91 635T135 650Q160 650 176 636T192 603V38Q192 20 176 6T135 -9Q107 -9 91 5T75 38V603ZM-32 775Q-53 784 -57 804T-53 842T-27 870T11 871L152 796Q169 787 173 772T171 741Q163
725 147 720T119 719L-32 775Z" />
<glyph unicode="&#xcd;" glyph-name="Iacute" horiz-adv-x="267" d="M75 603Q75 621 91 635T135 650Q160 650 176 636T192 603V38Q192 20 176 6T135 -9Q107 -9 91 5T75 38V603ZM143 721Q131 716 116 723T92 747Q84 763 89 778T106 799L247 874Q268 883 286 873T312
844T318 806T293 777L143 721Z" />
<glyph unicode="&#xce;" glyph-name="Icircumflex" horiz-adv-x="267" d="M75 603Q75 621 91 635T135 650Q160 650 176 636T192 603V38Q192 20 176 6T135 -9Q107 -9 91 5T75 38V603ZM27 710Q13 705 0 710T-20 726T-28 751T-17 778L114 866Q126 872 135 873T158
869L281 782Q296 770 297 755T290 727T267 710T237 714L138 784L27 710Z" />
<glyph unicode="&#xcf;" glyph-name="Idieresis" horiz-adv-x="267" d="M75 603Q75 621 91 635T135 650Q160 650 176 636T192 603V38Q192 20 176 6T135 -9Q107 -9 91 5T75 38V603ZM-39 778Q-39 797 -22 812T26 827Q53 827 70 812T88 778V753Q88 734 71 719T26
704Q-4 704 -21 719T-39 753V778ZM181 778Q181 797 198 812T246 827Q273 827 290 812T308 778V753Q308 734 291 719T246 704Q216 704 199 719T181 753V778Z" />
<glyph unicode="&#xd1;" glyph-name="Ntilde" horiz-adv-x="651" d="M75 603Q75 621 91 635T135 650Q157 650 172 639T191 612L460 219V603Q460 621 476 635T520 650Q545 650 560 636T576 603V37Q576 19 561 5T520 -10Q498 -10 484 -2T463 21L460 26L192 415V37Q192
19 177 5T135 -10Q108 -10 92 4T75 37V603ZM238 752Q211 752 201 743T184 723T172 702T147 693Q125 693 113 707T101 741Q101 767 111 787T140 821T181 842T230 849Q259 849 281 838T323 815T361 791T400 780Q421 780 429 789T443 808T456 828T483 838Q502 838
514 826T531 797Q534 773 524 754T497 720T456 697T410 689Q381 689 360 699T319 720T281 742T238 752Z" />
<glyph unicode="&#xd2;" glyph-name="Ograve" horiz-adv-x="636" d="M65 390Q65 445 80 492T126 575T204 630T317 650Q383 650 430 630T509 575T556 493T571 390V250Q571 195 556 148T510 65T431 10T317 -10Q252 -10 205 10T126 65T80 147T65 250V390ZM180 249Q180
167 217 133T317 98Q382 98 418 132T454 249V390Q454 472 418 506T317 541Q254 541 217 507T180 390V249ZM151 774Q130 783 126 803T130 841T156 869T194 870L335 795Q352 786 356 771T354 740Q346 724 330 719T302 718L151 774Z" />
<glyph unicode="&#xd3;" glyph-name="Oacute" horiz-adv-x="636" d="M65 390Q65 445 80 492T126 575T204 630T317 650Q383 650 430 630T509 575T556 493T571 390V250Q571 195 556 148T510 65T431 10T317 -10Q252 -10 205 10T126 65T80 147T65 250V390ZM180 249Q180
167 217 133T317 98Q382 98 418 132T454 249V390Q454 472 418 506T317 541Q254 541 217 507T180 390V249ZM327 720Q315 715 300 722T276 746Q268 762 273 777T290 798L431 873Q452 882 470 872T496 843T502 805T477 776L327 720Z" />
<glyph unicode="&#xd4;" glyph-name="Ocircumflex" horiz-adv-x="636" d="M65 390Q65 445 80 492T126 575T204 630T317 650Q383 650 430 630T509 575T556 493T571 390V250Q571 195 556 148T510 65T431 10T317 -10Q252 -10 205 10T126 65T80 147T65 250V390ZM180
249Q180 167 217 133T317 98Q382 98 418 132T454 249V390Q454 472 418 506T317 541Q254 541 217 507T180 390V249ZM210 709Q196 704 183 709T163 725T155 750T166 777L297 865Q309 871 318 872T341 868L464 781Q479 769 480 754T473 726T450 709T420 713L321 783L210
709Z" />
<glyph unicode="&#xd5;" glyph-name="Otilde" horiz-adv-x="636" d="M65 390Q65 445 80 492T126 575T204 630T317 650Q383 650 430 630T509 575T556 493T571 390V250Q571 195 556 148T510 65T431 10T317 -10Q252 -10 205 10T126 65T80 147T65 250V390ZM180 249Q180
167 217 133T317 98Q382 98 418 132T454 249V390Q454 472 418 506T317 541Q254 541 217 507T180 390V249ZM250 761Q223 761 213 752T196 732T184 711T159 702Q137 702 125 716T113 750Q113 776 123 796T152 830T193 851T242 858Q271 858 293 847T335 824T373 800T412
789Q433 789 441 798T455 817T468 837T495 847Q514 847 526 835T543 806Q546 782 536 763T509 729T468 706T422 698Q393 698 372 708T331 729T293 751T250 761Z" />
<glyph unicode="&#xd6;" glyph-name="Odieresis" horiz-adv-x="636" d="M65 390Q65 445 80 492T126 575T204 630T317 650Q383 650 430 630T509 575T556 493T571 390V250Q571 195 556 148T510 65T431 10T317 -10Q252 -10 205 10T126 65T80 147T65 250V390ZM180
249Q180 167 217 133T317 98Q382 98 418 132T454 249V390Q454 472 418 506T317 541Q254 541 217 507T180 390V249ZM144 777Q144 796 161 811T209 826Q236 826 253 811T271 777V752Q271 733 254 718T209 703Q179 703 162 718T144 752V777ZM365 777Q365 796 382 811T430
826Q457 826 474 811T492 777V752Q492 733 475 718T430 703Q400 703 383 718T365 752V777Z" />
<glyph unicode="&#xd8;" glyph-name="Oslash" horiz-adv-x="636" d="M65 390Q65 445 80 492T126 575T204 630T317 650Q371 650 412 637T484 598L511 633Q519 644 535 646T567 638Q581 627 583 612T579 586L538 533Q571 471 571 390V250Q571 195 556 148T510 65T431
10T317 -10Q266 -10 226 2T157 37L124 -6Q116 -17 101 -20T70 -12Q55 -1 52 14T57 42L101 99Q82 131 74 169T65 250V390ZM180 249Q180 225 183 206L415 508Q398 525 373 533T317 541Q254 541 217 507T180 390V249ZM454 390Q454 398 454 405T452 421L225 125Q258
98 317 98Q382 98 418 132T454 249V390Z" />
<glyph unicode="&#xd9;" glyph-name="Ugrave" horiz-adv-x="650" d="M321 -10Q255 -10 208 9T131 60T87 135T73 225V603Q73 621 89 635T133 650Q159 650 174 636T190 603V226Q190 99 321 99Q451 99 451 226V603Q451 621 467 635T509 650Q536 650 552 636T569 603V225Q569
178 555 135T511 60T434 9T321 -10ZM155 777Q134 786 130 806T134 844T160 872T198 873L339 798Q356 789 360 774T358 743Q350 727 334 722T306 721L155 777Z" />
<glyph unicode="&#xda;" glyph-name="Uacute" horiz-adv-x="650" d="M321 -10Q255 -10 208 9T131 60T87 135T73 225V603Q73 621 89 635T133 650Q159 650 174 636T190 603V226Q190 99 321 99Q451 99 451 226V603Q451 621 467 635T509 650Q536 650 552 636T569 603V225Q569
178 555 135T511 60T434 9T321 -10ZM331 723Q319 718 304 725T280 749Q272 765 277 780T294 801L435 876Q456 885 474 875T500 846T506 808T481 779L331 723Z" />
<glyph unicode="&#xdb;" glyph-name="Ucircumflex" horiz-adv-x="650" d="M321 -10Q255 -10 208 9T131 60T87 135T73 225V603Q73 621 89 635T133 650Q159 650 174 636T190 603V226Q190 99 321 99Q451 99 451 226V603Q451 621 467 635T509 650Q536 650 552 636T569
603V225Q569 178 555 135T511 60T434 9T321 -10ZM214 712Q200 707 187 712T167 728T159 753T170 780L301 868Q313 874 322 875T345 871L468 784Q483 772 484 757T477 729T454 712T424 716L325 786L214 712Z" />
<glyph unicode="&#xdc;" glyph-name="Udieresis" horiz-adv-x="650" d="M321 -10Q255 -10 208 9T131 60T87 135T73 225V603Q73 621 89 635T133 650Q159 650 174 636T190 603V226Q190 99 321 99Q451 99 451 226V603Q451 621 467 635T509 650Q536 650 552 636T569
603V225Q569 178 555 135T511 60T434 9T321 -10ZM148 780Q148 799 165 814T213 829Q240 829 257 814T275 780V755Q275 736 258 721T213 706Q183 706 166 721T148 755V780ZM369 780Q369 799 386 814T434 829Q461 829 478 814T496 780V755Q496 736 479 721T434 706Q404
706 387 721T369 755V780Z" />
<glyph unicode="&#xe0;" glyph-name="agrave" horiz-adv-x="580" d="M446 -15Q421 -15 406 -1T390 32V48L381 51Q372 38 362 27T336 8T301 -5T250 -10Q202 -10 166 7T107 53T73 117T61 191V279Q61 321 76 362T120 436T193 489T296 510Q351 510 391 495T456 454T494
391T506 312V32Q506 14 490 0T446 -15ZM390 310Q390 360 366 380T296 401Q270 401 249 392T213 366T190 328T181 283V187Q181 151 208 125T275 99Q297 99 317 106T354 128T380 165T390 216V310ZM119 642Q98 651 94 671T98 709T124 737T162 738L303 663Q320 654
324 639T322 608Q314 592 298 587T270 586L119 642Z" />
<glyph unicode="&#xe1;" glyph-name="aacute" horiz-adv-x="580" d="M446 -15Q421 -15 406 -1T390 32V48L381 51Q372 38 362 27T336 8T301 -5T250 -10Q202 -10 166 7T107 53T73 117T61 191V279Q61 321 76 362T120 436T193 489T296 510Q351 510 391 495T456 454T494
391T506 312V32Q506 14 490 0T446 -15ZM390 310Q390 360 366 380T296 401Q270 401 249 392T213 366T190 328T181 283V187Q181 151 208 125T275 99Q297 99 317 106T354 128T380 165T390 216V310ZM295 588Q283 583 268 590T244 614Q236 630 241 645T258 666L399 741Q420
750 438 740T464 711T470 673T445 644L295 588Z" />
<glyph unicode="&#xe2;" glyph-name="acircumflex" horiz-adv-x="580" d="M446 -15Q421 -15 406 -1T390 32V48L381 51Q372 38 362 27T336 8T301 -5T250 -10Q202 -10 166 7T107 53T73 117T61 191V279Q61 321 76 362T120 436T193 489T296 510Q351 510 391 495T456
454T494 391T506 312V32Q506 14 490 0T446 -15ZM390 310Q390 360 366 380T296 401Q270 401 249 392T213 366T190 328T181 283V187Q181 151 208 125T275 99Q297 99 317 106T354 128T380 165T390 216V310ZM435 577Q421 572 408 577T388 593T380 618T391 645L522 733Q534
739 543 740T566 736L689 649Q704 637 705 622T698 594T675 577T645 581L546 651L435 577Z" />
<glyph unicode="&#xe3;" glyph-name="atilde" horiz-adv-x="580" d="M446 -15Q421 -15 406 -1T390 32V48L381 51Q372 38 362 27T336 8T301 -5T250 -10Q202 -10 166 7T107 53T73 117T61 191V279Q61 321 76 362T120 436T193 489T296 510Q351 510 391 495T456 454T494
391T506 312V32Q506 14 490 0T446 -15ZM390 310Q390 360 366 380T296 401Q270 401 249 392T213 366T190 328T181 283V187Q181 151 208 125T275 99Q297 99 317 106T354 128T380 165T390 216V310ZM475 629Q448 629 438 620T421 600T409 579T384 570Q362 570 350 584T338
618Q338 644 348 664T377 698T418 719T467 726Q496 726 518 715T560 692T598 668T637 657Q658 657 666 666T680 685T693 705T720 715Q739 715 751 703T768 674Q771 650 761 631T734 597T693 574T647 566Q618 566 597 576T556 597T518 619T475 629Z" />
<glyph unicode="&#xe4;" glyph-name="adieresis" horiz-adv-x="580" d="M446 -15Q421 -15 406 -1T390 32V48L381 51Q372 38 362 27T336 8T301 -5T250 -10Q202 -10 166 7T107 53T73 117T61 191V279Q61 321 76 362T120 436T193 489T296 510Q351 510 391 495T456
454T494 391T506 312V32Q506 14 490 0T446 -15ZM390 310Q390 360 366 380T296 401Q270 401 249 392T213 366T190 328T181 283V187Q181 151 208 125T275 99Q297 99 317 106T354 128T380 165T390 216V310ZM112 645Q112 664 129 679T177 694Q204 694 221 679T239 645V620Q239
601 222 586T177 571Q147 571 130 586T112 620V645ZM333 645Q333 664 350 679T398 694Q425 694 442 679T460 645V620Q460 601 443 586T398 571Q368 571 351 586T333 620V645Z" />
<glyph unicode="&#xe5;" glyph-name="aring" horiz-adv-x="580" d="M446 -15Q421 -15 406 -1T390 32V48L381 51Q372 38 362 27T336 8T301 -5T250 -10Q202 -10 166 7T107 53T73 117T61 191V279Q61 321 76 362T120 436T193 489T296 510Q351 510 391 495T456 454T494
391T506 312V32Q506 14 490 0T446 -15ZM390 310Q390 360 366 380T296 401Q270 401 249 392T213 366T190 328T181 283V187Q181 151 208 125T275 99Q297 99 317 106T354 128T380 165T390 216V310ZM180 672Q180 693 188 711T211 743T244 765T286 773Q307 773 326 765T359
744T381 712T390 672Q390 652 382 634T359 603T326 581T286 573Q264 573 245 581T211 602T189 634T180 672ZM242 672Q242 655 255 644T286 632Q304 632 316 643T328 672Q328 689 316 701T286 714Q268 714 255 702T242 672Z" />
<glyph unicode="&#xe7;" glyph-name="ccedilla" horiz-adv-x="470" d="M55 292Q55 337 67 376T107 446T176 493T277 510Q328 510 365 497T425 460Q438 447 439 428T431 393T402 372T354 380Q339 388 321 394T277 401Q225 401 199 370T173 286V214Q173 161 199
130T277 99Q303 99 324 104T357 117Q378 128 396 125T426 109T439 79T428 43Q414 23 387 11T325 -6Q334 -23 339 -42T343 -81Q341 -109 323 -129T278 -158T220 -166T160 -146Q146 -137 143 -123T144 -98T161 -81T190 -82Q203 -88 215 -91T238 -95T256 -89T266 -72Q270
-58 268 -44T255 -9Q202 -6 164 12T102 60T67 127T55 208V292Z" />
<glyph unicode="&#xe8;" glyph-name="egrave" horiz-adv-x="537" d="M484 307Q484 260 466 241T406 222H169V196Q169 148 198 119T282 90Q309 90 331 93T367 103Q381 110 394 117T418 124Q438 124 449 112T461 81Q461 65 447 49T409 20T353 -1T283 -10Q232 -10
190 6T118 49T70 112T53 190V296Q53 340 69 379T115 447T184 493T272 510Q329 510 369 492T434 444T472 378T484 307ZM271 413Q226 413 200 385T169 309H373V324Q373 365 345 389T271 413ZM98 637Q77 646 73 666T77 704T103 732T141 733L282 658Q299 649 303 634T301
603Q293 587 277 582T249 581L98 637Z" />
<glyph unicode="&#xe9;" glyph-name="eacute" horiz-adv-x="537" d="M484 307Q484 260 466 241T406 222H169V196Q169 148 198 119T282 90Q309 90 331 93T367 103Q381 110 394 117T418 124Q438 124 449 112T461 81Q461 65 447 49T409 20T353 -1T283 -10Q232 -10
190 6T118 49T70 112T53 190V296Q53 340 69 379T115 447T184 493T272 510Q329 510 369 492T434 444T472 378T484 307ZM271 413Q226 413 200 385T169 309H373V324Q373 365 345 389T271 413ZM274 583Q262 578 247 585T223 609Q215 625 220 640T237 661L378 736Q399
745 417 735T443 706T449 668T424 639L274 583Z" />
<glyph unicode="&#xea;" glyph-name="ecircumflex" horiz-adv-x="537" d="M484 307Q484 260 466 241T406 222H169V196Q169 148 198 119T282 90Q309 90 331 93T367 103Q381 110 394 117T418 124Q438 124 449 112T461 81Q461 65 447 49T409 20T353 -1T283 -10Q232
-10 190 6T118 49T70 112T53 190V296Q53 340 69 379T115 447T184 493T272 510Q329 510 369 492T434 444T472 378T484 307ZM271 413Q226 413 200 385T169 309H373V324Q373 365 345 389T271 413ZM414 572Q400 567 387 572T367 588T359 613T370 640L501 728Q513 734
522 735T545 731L668 644Q683 632 684 617T677 589T654 572T624 576L525 646L414 572Z" />
<glyph unicode="&#xeb;" glyph-name="edieresis" horiz-adv-x="537" d="M484 307Q484 260 466 241T406 222H169V196Q169 148 198 119T282 90Q309 90 331 93T367 103Q381 110 394 117T418 124Q438 124 449 112T461 81Q461 65 447 49T409 20T353 -1T283 -10Q232
-10 190 6T118 49T70 112T53 190V296Q53 340 69 379T115 447T184 493T272 510Q329 510 369 492T434 444T472 378T484 307ZM271 413Q226 413 200 385T169 309H373V324Q373 365 345 389T271 413ZM91 640Q91 659 108 674T156 689Q183 689 200 674T218 640V615Q218
596 201 581T156 566Q126 566 109 581T91 615V640ZM312 640Q312 659 329 674T377 689Q404 689 421 674T439 640V615Q439 596 422 581T377 566Q347 566 330 581T312 615V640Z" />
<glyph unicode="&#xec;" glyph-name="igrave" horiz-adv-x="264" d="M73 471Q73 489 89 503T133 518Q159 518 174 504T190 471V38Q190 20 175 6T133 -9Q106 -9 90 5T73 38V471ZM222 647Q201 656 197 676T201 714T227 742T265 743L406 668Q423 659 427 644T425
613Q417 597 401 592T373 591L222 647Z" />
<glyph unicode="&#xed;" glyph-name="iacute" horiz-adv-x="264" d="M73 471Q73 489 89 503T133 518Q159 518 174 504T190 471V38Q190 20 175 6T133 -9Q106 -9 90 5T73 38V471ZM141 593Q129 588 114 595T90 619Q82 635 87 650T104 671L245 746Q266 755 284 745T310
716T316 678T291 649L141 593Z" />
<glyph unicode="&#xee;" glyph-name="icircumflex" horiz-adv-x="264" d="M73 471Q73 489 89 503T133 518Q159 518 174 504T190 471V38Q190 20 175 6T133 -9Q106 -9 90 5T73 38V471ZM25 582Q11 577 -2 582T-22 598T-30 623T-19 650L112 738Q124 744 133 745T156
741L279 654Q294 642 295 627T288 599T265 582T235 586L136 656L25 582Z" />
<glyph unicode="&#xef;" glyph-name="idieresis" horiz-adv-x="264" d="M73 471Q73 489 89 503T133 518Q159 518 174 504T190 471V38Q190 20 175 6T133 -9Q106 -9 90 5T73 38V471ZM-41 650Q-41 669 -24 684T24 699Q51 699 68 684T86 650V625Q86 606 69 591T24
576Q-6 576 -23 591T-41 625V650ZM179 650Q179 669 196 684T244 699Q271 699 288 684T306 650V625Q306 606 289 591T244 576Q214 576 197 591T179 625V650Z" />
<glyph unicode="&#xf1;" glyph-name="ntilde" horiz-adv-x="584" d="M292 510Q347 510 388 495T458 453T500 386T514 300V37Q514 19 497 5T454 -10Q428 -10 412 4T396 37V294Q396 349 367 375T292 401Q247 401 217 375T187 294V37Q187 19 172 5T130 -10Q103 -10
87 4T70 37V290Q70 337 84 377T126 447T195 493T292 510ZM225 632Q198 632 188 623T171 603T159 582T134 573Q112 573 100 587T88 621Q88 647 98 667T127 701T168 722T217 729Q246 729 268 718T310 695T348 671T387 660Q408 660 416 669T430 688T443 708T470 718Q489
718 501 706T518 677Q521 653 511 634T484 600T443 577T397 569Q368 569 347 579T306 600T268 622T225 632Z" />
<glyph unicode="&#xf2;" glyph-name="ograve" horiz-adv-x="564" d="M55 281Q55 328 68 369T109 442T180 492T282 510Q340 510 383 492T454 443T495 370T509 281V212Q509 167 496 127T454 57T383 10T282 -8Q223 -8 180 9T110 57T69 127T55 212V281ZM173 211Q173
156 202 126T282 96Q333 96 362 126T391 211V283Q391 343 362 374T282 405Q231 405 202 374T173 283V211ZM116 637Q95 646 91 666T95 704T121 732T159 733L300 658Q317 649 321 634T319 603Q311 587 295 582T267 581L116 637Z" />
<glyph unicode="&#xf3;" glyph-name="oacute" horiz-adv-x="564" d="M55 281Q55 328 68 369T109 442T180 492T282 510Q340 510 383 492T454 443T495 370T509 281V212Q509 167 496 127T454 57T383 10T282 -8Q223 -8 180 9T110 57T69 127T55 212V281ZM173 211Q173
156 202 126T282 96Q333 96 362 126T391 211V283Q391 343 362 374T282 405Q231 405 202 374T173 283V211ZM292 583Q280 578 265 585T241 609Q233 625 238 640T255 661L396 736Q417 745 435 735T461 706T467 668T442 639L292 583Z" />
<glyph unicode="&#xf4;" glyph-name="ocircumflex" horiz-adv-x="564" d="M55 281Q55 328 68 369T109 442T180 492T282 510Q340 510 383 492T454 443T495 370T509 281V212Q509 167 496 127T454 57T383 10T282 -8Q223 -8 180 9T110 57T69 127T55 212V281ZM173 211Q173
156 202 126T282 96Q333 96 362 126T391 211V283Q391 343 362 374T282 405Q231 405 202 374T173 283V211ZM432 572Q418 567 405 572T385 588T377 613T388 640L519 728Q531 734 540 735T563 731L686 644Q701 632 702 617T695 589T672 572T642 576L543 646L432 572Z"
/>
<glyph unicode="&#xf5;" glyph-name="otilde" horiz-adv-x="564" d="M55 281Q55 328 68 369T109 442T180 492T282 510Q340 510 383 492T454 443T495 370T509 281V212Q509 167 496 127T454 57T383 10T282 -8Q223 -8 180 9T110 57T69 127T55 212V281ZM173 211Q173
156 202 126T282 96Q333 96 362 126T391 211V283Q391 343 362 374T282 405Q231 405 202 374T173 283V211ZM472 624Q445 624 435 615T418 595T406 574T381 565Q359 565 347 579T335 613Q335 639 345 659T374 693T415 714T464 721Q493 721 515 710T557 687T595 663T634
652Q655 652 663 661T677 680T690 700T717 710Q736 710 748 698T765 669Q768 645 758 626T731 592T690 569T644 561Q615 561 594 571T553 592T515 614T472 624Z" />
<glyph unicode="&#xf6;" glyph-name="odieresis" horiz-adv-x="564" d="M55 281Q55 328 68 369T109 442T180 492T282 510Q340 510 383 492T454 443T495 370T509 281V212Q509 167 496 127T454 57T383 10T282 -8Q223 -8 180 9T110 57T69 127T55 212V281ZM173 211Q173
156 202 126T282 96Q333 96 362 126T391 211V283Q391 343 362 374T282 405Q231 405 202 374T173 283V211ZM109 640Q109 659 126 674T174 689Q201 689 218 674T236 640V615Q236 596 219 581T174 566Q144 566 127 581T109 615V640ZM330 640Q330 659 347 674T395 689Q422
689 439 674T457 640V615Q457 596 440 581T395 566Q365 566 348 581T330 615V640Z" />
<glyph unicode="&#xf7;" glyph-name="divide" horiz-adv-x="524" d="M200 441Q200 460 217 475T265 490Q292 490 309 475T327 441V416Q327 397 310 382T265 367Q235 367 218 382T200 416V441ZM200 129Q200 148 217 163T265 178Q292 178 309 163T327 129V104Q327
85 310 70T265 55Q235 55 218 70T200 104V129ZM681 584Q709 584 723 570T738 530Q738 507 724 493T681 478H346Q328 478 313 492T298 530Q298 555 313 569T346 584H681Z" />
<glyph unicode="&#xf8;" glyph-name="oslash" horiz-adv-x="580" d="M63 281Q63 328 76 369T117 442T188 492T290 510Q332 510 366 500T427 473L451 503Q459 514 475 516T507 508Q521 497 523 482T519 456L484 412Q517 355 517 281V212Q517 167 504 127T462 57T391
10T290 -8Q220 -8 170 17L144 -16Q136 -27 121 -30T90 -22Q75 -11 72 4T77 32L107 69Q84 98 74 134T63 212V281ZM181 211Q181 200 182 190T186 169L357 385Q331 405 290 405Q239 405 210 374T181 283V211ZM399 283Q399 288 399 293T398 304L240 105Q262 96 290
96Q341 96 370 126T399 211V283Z" />
<glyph unicode="&#xf9;" glyph-name="ugrave" horiz-adv-x="584" d="M292 -10Q237 -10 196 6T126 52T84 122T70 210V462Q70 480 86 494T130 509Q156 509 171 495T187 462V206Q187 151 217 125T292 99Q337 99 366 125T396 206V462Q396 480 412 494T454 509Q480
509 497 495T514 462V210Q514 163 500 123T458 53T389 7T292 -10ZM126 644Q105 653 101 673T105 711T131 739T169 740L310 665Q327 656 331 641T329 610Q321 594 305 589T277 588L126 644Z" />
<glyph unicode="&#xfa;" glyph-name="uacute" horiz-adv-x="584" d="M292 -10Q237 -10 196 6T126 52T84 122T70 210V462Q70 480 86 494T130 509Q156 509 171 495T187 462V206Q187 151 217 125T292 99Q337 99 366 125T396 206V462Q396 480 412 494T454 509Q480
509 497 495T514 462V210Q514 163 500 123T458 53T389 7T292 -10ZM302 590Q290 585 275 592T251 616Q243 632 248 647T265 668L406 743Q427 752 445 742T471 713T477 675T452 646L302 590Z" />
<glyph unicode="&#xfb;" glyph-name="ucircumflex" horiz-adv-x="584" d="M292 -10Q237 -10 196 6T126 52T84 122T70 210V462Q70 480 86 494T130 509Q156 509 171 495T187 462V206Q187 151 217 125T292 99Q337 99 366 125T396 206V462Q396 480 412 494T454 509Q480
509 497 495T514 462V210Q514 163 500 123T458 53T389 7T292 -10ZM442 579Q428 574 415 579T395 595T387 620T398 647L529 735Q541 741 550 742T573 738L696 651Q711 639 712 624T705 596T682 579T652 583L553 653L442 579Z" />
<glyph unicode="&#xfc;" glyph-name="udieresis" horiz-adv-x="584" d="M292 -10Q237 -10 196 6T126 52T84 122T70 210V462Q70 480 86 494T130 509Q156 509 171 495T187 462V206Q187 151 217 125T292 99Q337 99 366 125T396 206V462Q396 480 412 494T454 509Q480
509 497 495T514 462V210Q514 163 500 123T458 53T389 7T292 -10ZM119 647Q119 666 136 681T184 696Q211 696 228 681T246 647V622Q246 603 229 588T184 573Q154 573 137 588T119 622V647ZM340 647Q340 666 357 681T405 696Q432 696 449 681T467 647V622Q467 603
450 588T405 573Q375 573 358 588T340 622V647Z" />
<glyph unicode="&#xff;" glyph-name="ydieresis" horiz-adv-x="576" d="M386 468Q385 483 401 497T445 511Q471 511 487 497T503 464V-35Q502 -83 486 -118T441 -176T374 -210T292 -221Q243 -221 214 -217T171 -208Q138 -187 138 -157Q138 -135 152 -122T194 -109Q205
-109 231 -113T292 -117Q339 -117 362 -96T386 -35V41L381 43Q359 17 331 4T259 -9Q204 -9 168 6T111 50T82 116T73 201V464Q73 482 90 496T133 511Q159 511 175 497T191 464V197Q191 150 212 125T285 100Q321 100 348 117T386 172V468ZM115 645Q115 664 132 679T180
694Q207 694 224 679T242 645V620Q242 601 225 586T180 571Q150 571 133 586T115 620V645ZM336 645Q336 664 353 679T401 694Q428 694 445 679T463 645V620Q463 601 446 586T401 571Q371 571 354 586T336 620V645Z" />
<glyph unicode="&#x131;" glyph-name="dotlessi" horiz-adv-x="264" d="M73 471Q73 489 89 503T133 518Q159 518 174 504T190 471V38Q190 20 175 6T133 -9Q106 -9 90 5T73 38V471Z" />
<glyph unicode="&#x178;" glyph-name="Ydieresis" horiz-adv-x="550" d="M214 239L33 570Q22 584 27 604T53 638Q76 652 98 649T131 631L275 348L420 631Q431 645 453 648T498 638Q519 625 523 605T518 570L330 228V38Q330 20 315 6T274 -9Q246 -9 230 5T214 38V239ZM102
777Q102 796 119 811T167 826Q194 826 211 811T229 777V752Q229 733 212 718T167 703Q137 703 120 718T102 752V777ZM323 777Q323 796 340 811T388 826Q415 826 432 811T450 777V752Q450 733 433 718T388 703Q358 703 341 718T323 752V777Z" />
<glyph unicode="&#x2c6;" glyph-name="circumflex" horiz-adv-x="639" d="M209 516Q195 511 182 516T162 532T154 557T165 584L296 672Q308 678 317 679T340 675L463 588Q478 576 479 561T472 533T449 516T419 520L320 590L209 516Z" />
<glyph unicode="&#x2c7;" glyph-name="caron" horiz-adv-x="639" d="M424 675Q438 680 451 675T471 659T479 634T468 607L337 519Q325 513 316 512T293 516L170 603Q155 615 154 630T161 658T184 675T214 671L313 601L424 675Z" />
<glyph unicode="&#x2d8;" glyph-name="breve" horiz-adv-x="397" d="M42 650Q42 669 54 681T83 695T113 691T131 666Q135 640 155 628T198 616T241 631T265 672Q271 687 284 692T312 695T339 682T355 656Q353 618 330 592T274 553T202 540T129 551T71 588T42 650Z" />
<glyph unicode="&#x2d9;" glyph-name="dotaccent" horiz-adv-x="243" d="M55 583Q55 602 72 617T120 632Q147 632 164 617T182 583V558Q182 539 165 524T120 509Q90 509 73 524T55 558V583Z" />
<glyph unicode="&#x2da;" glyph-name="ring" horiz-adv-x="235" d="M21 635Q21 656 29 674T52 706T85 728T127 736Q148 736 167 728T200 707T222 675T231 635Q231 615 223 597T200 566T167 544T127 536Q105 536 86 544T52 565T30 597T21 635ZM83 635Q83 618 96
607T127 595Q145 595 157 606T169 635Q169 652 157 664T127 677Q109 677 96 665T83 635Z" />
<glyph unicode="&#x2dc;" glyph-name="tilde" horiz-adv-x="590" d="M223 530Q196 530 186 521T169 501T157 480T132 471Q110 471 98 485T86 519Q86 545 96 565T125 599T166 620T215 627Q244 627 266 616T308 593T346 569T385 558Q406 558 414 567T428 586T441
606T468 616Q487 616 499 604T516 575Q519 551 509 532T482 498T441 475T395 467Q366 467 345 477T304 498T266 520T223 530Z" />
<glyph unicode="&#x2013;" glyph-name="endash" horiz-adv-x="545" d="M435 347Q463 347 477 333T492 293Q492 270 478 256T435 241H100Q82 241 67 255T52 293Q52 318 67 332T100 347H435Z" />
<glyph unicode="&#x2014;" glyph-name="emdash" horiz-adv-x="723" d="M613 347Q642 347 656 333T671 293Q671 270 657 256T613 241H100Q82 241 67 255T52 293Q52 318 67 332T100 347H613Z" />
<glyph unicode="&#x2018;" glyph-name="quoteleft" horiz-adv-x="250" d="M146 447Q146 415 127 403T85 390Q63 390 47 399T31 438Q31 508 56 560T143 646Q169 656 187 649T213 626T216 593T187 561Q160 544 153 513T146 447Z" />
<glyph unicode="&#x2019;" glyph-name="quoteright" horiz-adv-x="250" d="M104 595Q104 627 123 639T165 652Q187 652 202 643T218 604Q218 534 193 482T107 396Q81 386 63 393T37 416T34 449T63 481Q89 498 96 529T104 595Z" />
<glyph unicode="&#x201a;" glyph-name="quotesinglbase" horiz-adv-x="250" d="M104 80Q104 112 123 124T165 137Q187 137 202 128T218 89Q218 19 193 -33T107 -119Q81 -129 63 -122T37 -99T34 -66T63 -34Q89 -17 96 14T104 80Z" />
<glyph unicode="&#x201c;" glyph-name="quotedblleft" horiz-adv-x="432" d="M146 447Q146 415 127 403T85 390Q63 390 47 399T31 438Q31 508 56 560T143 646Q169 656 187 649T213 626T216 593T187 561Q160 544 153 513T146 447ZM338 447Q338 415 319 403T277
390Q255 390 239 399T223 438Q223 508 248 560T335 646Q361 656 379 649T405 626T408 593T379 561Q352 544 345 513T338 447Z" />
<glyph unicode="&#x201d;" glyph-name="quotedblright" horiz-adv-x="419" d="M104 595Q104 627 123 639T165 652Q187 652 202 643T218 604Q218 534 193 482T107 396Q81 386 63 393T37 416T34 449T63 481Q89 498 96 529T104 595ZM283 595Q283 627 302 639T344
652Q366 652 381 643T397 604Q397 534 372 482T286 396Q260 386 242 393T216 416T213 449T242 481Q268 498 275 529T283 595Z" />
<glyph unicode="&#x201e;" glyph-name="quotedblbase" horiz-adv-x="419" d="M104 66Q104 98 123 110T165 123Q187 123 202 114T218 75Q218 5 193 -47T107 -133Q81 -143 63 -136T37 -113T34 -80T63 -48Q89 -31 96 0T104 66ZM273 66Q273 98 292 110T334 123Q356
123 371 114T387 75Q387 5 362 -47T276 -133Q250 -143 232 -136T206 -113T203 -80T232 -48Q258 -31 265 0T273 66Z" />
<glyph unicode="&#x2022;" glyph-name="bullet" horiz-adv-x="311" d="M54 306Q54 336 82 360T159 385Q203 385 231 361T260 306V265Q260 234 232 210T159 186Q111 186 83 210T54 265V306Z" />
<glyph unicode="&#x2026;" glyph-name="ellipsis" horiz-adv-x="609" d="M258 65Q258 84 275 99T323 114Q350 114 367 99T385 65V40Q385 21 368 6T323 -9Q293 -9 276 6T258 40V65ZM55 64Q55 83 72 98T120 113Q147 113 164 98T182 64V39Q182 20 165 5T120 -10Q90
-10 73 5T55 39V64ZM437 65Q437 84 454 99T502 114Q529 114 546 99T564 65V40Q564 21 547 6T502 -9Q472 -9 455 6T437 40V65Z" />
<glyph unicode="&#x2030;" glyph-name="perthousand" horiz-adv-x="1132" d="M52 522Q52 551 64 575T96 615T144 641T202 650Q232 650 259 641T306 616T338 575T350 522V456Q350 427 339 403T307 363T259 337T202 328Q171 328 144 337T97 362T64 403T52 456V522ZM441
184Q441 213 452 237T484 277T532 303T590 312Q621 312 648 303T695 278T726 237T738 184V118Q738 89 727 65T695 25T648 -1T590 -10Q559 -10 532 -1T485 24T453 65T441 118V184ZM782 184Q782 213 793 237T825 277T873 303T931 312Q962 312 989 303T1036 278T1067
237T1079 184V118Q1079 89 1068 65T1036 25T989 -1T931 -10Q900 -10 873 -1T826 24T794 65T782 118V184ZM512 625Q520 641 540 648T584 643Q607 632 612 614T609 581L287 17Q278 0 258 -7T215 -4Q192 8 186 26T188 61L512 625ZM148 460Q148 437 163 424T202 410Q223
410 238 423T254 460V518Q254 541 239 554T202 568Q179 568 164 555T148 518V460ZM878 122Q878 99 893 86T931 72Q953 72 968 85T984 122V180Q984 203 969 216T931 230Q909 230 894 217T878 180V122ZM537 122Q537 99 552 86T590 72Q611 72 627 85T643 122V180Q643
203 627 216T590 230Q568 230 553 217T537 180V122Z" />
<glyph unicode="&#x2039;" glyph-name="guilsinglleft" horiz-adv-x="341" d="M285 101Q292 83 285 66T262 37T228 25T192 37L63 218Q54 233 53 245T59 273L187 444Q203 462 224 462T261 449T284 418T279 380L185 248L285 101Z" />
<glyph unicode="&#x203a;" glyph-name="guilsinglright" horiz-adv-x="341" d="M57 385Q49 403 56 420T79 449T113 461T149 449L278 268Q287 253 288 241T282 213L154 42Q137 24 117 24T80 37T57 68T62 106L156 238L57 385Z" />
<glyph unicode="&#x2044;" glyph-name="fraction" horiz-adv-x="506" d="M396 628Q406 642 428 645T474 634Q494 620 498 601T493 566L110 10Q99 -5 78 -9T35 1Q12 15 8 35T14 72L396 628Z" />
<glyph unicode="&#x20ac;" glyph-name="Euro" horiz-adv-x="520" d="M5 343Q-11 346 -19 359T-27 387T-19 415T5 431H66Q72 477 91 517T143 586T218 633T318 650Q357 650 390 641T447 617T485 583T499 543Q499 523 488 512T459 501Q442 501 429 505T399 521Q384
531 365 538T317 545Q266 545 230 518T183 431H354Q375 430 385 417T395 387T385 358T354 343H180V287H354Q375 286 385 273T395 243T385 214T354 199H185Q196 145 232 120T317 95Q346 95 363 99T397 113Q408 120 415 127T430 139T446 145T466 142Q484 135 491
124T499 96Q499 75 486 56T448 23T390 -1T318 -10Q264 -10 221 6T146 50T94 116T67 199H5Q-11 202 -19 215T-27 243T-19 271T5 287H63V343H5Z" />
<glyph unicode="&#x2122;" glyph-name="trademark" horiz-adv-x="558" d="M397 432Q385 432 378 438T366 451L331 556V417Q331 409 324 403T304 396Q292 396 285 402T277 417V623Q277 631 284 637T304 644H312Q335 644 343 628L397 493L449 628Q459 645 481 645L488
644Q501 644 508 638T516 623V417Q516 409 509 403T488 396Q476 396 469 402T462 417V556L426 451Q422 444 415 438T397 432ZM220 640Q247 640 247 615Q247 604 240 598T220 591H170V417Q170 409 163 402T144 395Q132 395 125 402T118 417V591H68Q56 591 49 597T42
615Q42 640 68 640H220Z" />
<glyph unicode="&#xfb01;" glyph-name="fi" horiz-adv-x="644" d="M101 500V530Q101 624 146 662T280 700Q302 700 322 696T357 684T382 663T391 636Q391 614 380 601T345 588Q328 588 315 592T280 596Q245 596 231 582T217 534V500H294Q311 500 324 488T337 455Q337
433 324 421T294 408H217V37Q217 19 202 5T161 -10Q133 -10 117 4T101 37V408H66Q49 408 36 420T23 455Q23 475 36 487T66 500H101ZM453 463Q453 481 469 495T513 510Q539 510 554 496T570 463V37Q570 19 555 5T513 -10Q486 -10 470 4T453 37V463ZM453 643Q453
661 469 675T513 690Q539 690 554 676T570 643V619Q570 601 555 587T513 572Q486 572 470 586T453 619V643Z" />
<glyph unicode="&#xfb02;" glyph-name="fl" horiz-adv-x="644" d="M101 500V530Q101 624 146 662T280 700Q302 700 322 696T357 684T382 663T391 636Q391 614 380 601T345 588Q328 588 315 592T280 596Q245 596 231 582T217 534V500H294Q311 500 324 488T337 455Q337
433 324 421T294 408H217V37Q217 19 202 5T161 -10Q133 -10 117 4T101 37V408H66Q49 408 36 420T23 455Q23 475 36 487T66 500H101ZM453 633Q453 651 469 665T513 680Q539 680 554 666T570 633V37Q570 19 555 5T513 -10Q486 -10 470 4T453 37V633Z" />
</font>
</defs>
</svg>
