<?xml version="1.0" standalone="no"?> <!DOCTYPE svg PUBLIC "-//W3C//DTD SVG 1.0//EN" "http://www.w3.org/TR/2001/REC-SVG-20010904/DTD/svg10.dtd" > <svg xmlns="http://www.w3.org/2000/svg" width="100%" height="100%">
<defs >
<font horiz-adv-x="548" ><font-face
    font-family="Days"
    units-per-em="1000"
    panose-1="2 0 5 5 5 0 0 2 0 4"
    ascent="990"
    descent="-180"
    alphabetic="0" />
<missing-glyph horiz-adv-x="350" />
<glyph unicode=" " glyph-name="space" horiz-adv-x="350" />
<glyph unicode="!" glyph-name="exclam" horiz-adv-x="319" d="M64 61V92Q64 124 81 141T130 158H190Q222 158 239 141T256 92V61Q256 30 239 13T190 -5H130Q98 -5 81 12T64 61ZM198 208H121Q102 208 89 221T75 253L61 654Q60 673 74 686T107 700H212Q231 700
245 687T258 654L244 253Q243 234 230 221T198 208Z" />
<glyph unicode="&quot;" glyph-name="quotedbl" horiz-adv-x="394" d="M260 700H324Q342 700 353 689T363 660L348 452Q346 434 335 423T307 412H277Q260 412 249 423T236 452L221 660Q220 677 231 688T260 700ZM70 700H134Q152 700 163 689T173 660L158 452Q156
434 145 423T117 412H87Q70 412 59 423T46 452L31 660Q30 677 41 688T70 700Z" />
<glyph unicode="#" glyph-name="numbersign" horiz-adv-x="837" d="M94 540H230L263 654Q276 700 343 700H399Q417 700 424 687T426 654L393 540H538L571 654Q584 700 651 700H707Q725 700 732 687T734 654L701 540H787Q800 540 808 532T817 510V452Q816 439 808
431T787 422H668L627 278H730Q743 278 751 270T760 248V190Q760 177 752 169T731 160H594L562 46Q549 0 482 0H426Q408 0 401 13T399 46L431 160H286L254 46Q241 0 174 0H118Q100 0 93 13T91 46L123 160H50Q37 160 29 168T20 190V248Q21 261 29 269T50 278H156L197
422H94Q81 422 73 430T64 452V510Q64 523 72 531T94 540ZM357 425L315 275H466L508 425H357Z" />
<glyph unicode="$" glyph-name="dollar" horiz-adv-x="779" d="M312 749Q312 762 320 770T342 779H378V704H405V779H441Q454 779 462 771T471 749V704Q570 703 650 652T731 524Q731 495 714 483T681 470H623Q579 470 557 516Q536 560 471 565V412Q530 399 573
385T659 346T726 285T749 200Q749 107 686 55T471 -3V-49Q471 -62 463 -70T441 -79H405V-4H378V-79H342Q329 -79 321 -71T312 -49V-4H291Q191 -4 111 47T30 176Q30 205 47 217T80 230H138Q182 230 204 184Q228 134 308 134H312V289Q266 299 231 309T157 337T94
376T53 429T36 500Q36 593 98 645T312 703V749ZM565 190Q565 229 471 254V134H479Q565 134 565 190ZM220 510Q220 471 312 446V566H306Q220 566 220 510ZM405 269L378 274V134H405V269ZM378 566V431L405 426V566H378Z" />
<glyph unicode="%" glyph-name="percent" horiz-adv-x="837" d="M657 700H735Q754 700 759 685T752 654L265 46Q229 0 180 0H102Q83 0 78 15T85 46L572 654Q608 700 657 700ZM693 120T693 153T678 205T637 224T596 205T581 153T596 101T637 82T678 101ZM807 228T807
153T759 35T637 -9T516 34T467 153T515 271T637 315T758 272ZM256 515T256 548T241 600T200 619T159 600T144 548T159 496T200 477T241 496ZM370 623T370 548T322 430T200 386T79 429T30 548T78 666T200 710T321 667Z" />
<glyph unicode="&amp;" glyph-name="ampersand" horiz-adv-x="762" d="M513 51Q418 -10 302 -10Q171 -10 101 48T30 207Q30 343 147 397Q103 445 103 511Q103 596 171 653T362 710Q486 710 557 667T628 540Q628 527 620 519T598 510H533Q500 510 477 546Q448 592
364 592Q321 592 297 573T273 520Q273 485 294 455T357 390L526 243L574 312Q591 335 614 320L667 284Q692 266 675 242L616 158L741 46Q756 32 750 16T724 0H613Q592 0 573 8T543 24T513 51ZM314 108Q374 108 417 137L243 294Q194 270 194 207Q194 108 314 108Z"
/>
<glyph unicode="&apos;" glyph-name="quotesingle" horiz-adv-x="204" d="M70 700H134Q152 700 163 689T173 660L158 452Q156 434 145 423T117 412H87Q70 412 59 423T46 452L31 660Q30 677 41 688T70 700Z" />
<glyph unicode="(" glyph-name="parenleft" horiz-adv-x="325" d="M182 497T182 305T299 -30Q321 -55 311 -70L283 -116Q276 -127 265 -130T243 -127Q137 -57 84 58T30 305T83 551T243 737Q253 744 264 741T283 726L311 680Q321 665 299 640Q182 497 182 305Z" />
<glyph unicode=")" glyph-name="parenright" horiz-adv-x="325" d="M143 113T143 305T26 640Q4 665 14 680L42 726Q49 737 60 740T82 737Q188 667 241 552T295 305T242 59T82 -127Q72 -134 61 -131T42 -116L14 -70Q4 -55 26 -30Q143 113 143 305Z" />
<glyph unicode="*" glyph-name="asterisk" horiz-adv-x="426" d="M190 700H236Q249 700 257 693T266 673L265 596L330 636Q342 643 353 640T371 625L391 588Q397 578 394 566T380 547L310 510L380 473Q391 467 394 455T391 432L371 395Q365 384 354 381T330 384L265
424L266 347Q266 335 258 328T236 320H190Q177 320 169 327T160 347L161 424L96 384Q84 377 73 380T55 395L35 432Q29 442 32 454T46 473L116 510L46 547Q35 553 32 565T35 588L55 625Q61 636 72 639T96 636L161 596L160 673Q160 685 168 692T190 700Z" />
<glyph unicode="+" glyph-name="plus" horiz-adv-x="468" d="M172 120V248H50Q37 248 29 256T20 278V336Q20 349 28 357T50 366H172V488Q172 501 180 509T202 518H260Q273 518 281 510T290 488V366H418Q431 366 439 358T448 336V278Q448 265 440 257T418 248H290V120Q290
107 282 99T260 90H202Q189 90 181 98T172 120Z" />
<glyph unicode="," glyph-name="comma" horiz-adv-x="269" d="M222 82L164 -65Q154 -89 134 -105T87 -121H68Q37 -121 27 -105T23 -55L52 102Q56 125 78 141T126 158H166Q205 158 220 138T222 82Z" />
<glyph unicode="-" glyph-name="hyphen" horiz-adv-x="468" d="M50 366H418Q431 366 439 358T448 336V278Q448 265 440 257T418 248H50Q37 248 29 256T20 278V336Q20 349 28 357T50 366Z" />
<glyph unicode="." glyph-name="period" horiz-adv-x="272" d="M40 61V92Q40 124 57 141T106 158H166Q198 158 215 141T232 92V61Q232 30 215 13T166 -5H106Q74 -5 57 12T40 61Z" />
<glyph unicode="/" glyph-name="slash" horiz-adv-x="515" d="M409 700H491Q509 700 513 686T508 654L191 46Q168 0 106 0H24Q6 0 2 14T7 46L324 654Q347 700 409 700Z" />
<glyph unicode="0" glyph-name="zero" horiz-adv-x="796" d="M582 566T398 566T214 350T398 134T582 350ZM381 704H415Q491 704 552 686T662 629T739 519T766 350T739 182T663 72T552 14T415 -4H381Q305 -4 244 14T134 71T57 181T30 350T57 518T133 628T244 686T381 704Z" />
<glyph unicode="1" glyph-name="one" horiz-adv-x="390" d="M201 700H273Q293 700 306 687T320 654V46Q320 27 306 14T273 0H182Q163 0 150 13T136 45V517L80 476Q70 469 58 471T37 483L0 530Q-16 552 10 574L129 677Q155 700 201 700Z" />
<glyph unicode="2" glyph-name="two" horiz-adv-x="702" d="M30 117Q30 179 55 224T121 296T210 340T308 370T397 394T462 425T488 471Q488 526 460 546T364 566H329Q235 566 205 506Q183 460 139 460H81Q72 460 62 463T42 480T31 514Q31 570 73 614T179 681T312
704H378Q443 704 493 693T585 657T649 585T672 471Q672 414 647 371T581 302T492 258T394 227T305 204T240 177T214 138H619Q639 138 652 125T666 92V46Q666 27 652 14T619 0H77Q58 0 44 13T30 46V117Z" />
<glyph unicode="3" glyph-name="three" horiz-adv-x="723" d="M375 566H339Q245 566 215 506Q193 460 149 460H91Q82 460 72 463T52 480T41 514Q41 570 83 614T189 681T322 704H389Q683 704 683 490Q683 401 616 350Q693 302 693 209Q693 96 621 46T410 -4H306Q197
-4 111 50T25 191Q25 220 42 232T75 245H133Q178 245 203 191Q230 134 323 134H393Q453 134 481 151T509 209T481 267T393 284H305Q286 284 273 297T259 330V370Q259 388 272 402T303 416H375Q440 416 469 433T499 491T470 549T375 566Z" />
<glyph unicode="4" glyph-name="four" horiz-adv-x="760" d="M10 169V227Q10 270 40 303L363 670Q390 700 439 700H592Q612 700 625 687T639 654V261H693Q713 261 726 248T740 215V169Q740 150 726 137T693 123H639V46Q639 27 625 14T592 0H501Q482 0 469 13T455
45V123H57Q38 123 24 136T10 169ZM455 261V544L206 261H455Z" />
<glyph unicode="5" glyph-name="five" horiz-adv-x="725" d="M412 -4H301Q191 -4 116 45T40 169Q40 198 57 210T90 223H148Q189 223 214 177Q238 134 318 134H395Q455 134 483 153T511 218T483 283T395 302H111Q92 302 79 315T65 347V654Q65 674 78 687T111 700H614Q634
700 647 687T660 654V608Q660 588 647 575T614 562H249V440H412Q551 440 623 388T695 218T623 48T412 -4Z" />
<glyph unicode="6" glyph-name="six" horiz-adv-x="743" d="M224 434H430Q569 434 641 384T713 215T641 47T430 -4H323Q182 -4 111 50T40 236V452Q40 591 110 647T321 704H445Q555 704 628 656T702 534Q702 505 685 493T652 480H594Q556 480 528 526Q504 566 428
566H338Q278 566 251 542T224 452V434ZM413 296H224V236Q224 176 251 155T340 134H413Q473 134 501 151T529 215T501 278T413 296Z" />
<glyph unicode="7" glyph-name="seven" horiz-adv-x="637" d="M149 41L431 562H57Q37 562 24 575T10 608V654Q10 673 24 686T57 700H580Q599 700 613 687T627 654V609Q627 575 597 520L341 46Q316 0 277 0H177Q157 0 149 13T149 41Z" />
<glyph unicode="8" glyph-name="eight" horiz-adv-x="756" d="M330 134H426Q486 134 514 151T542 211T514 271T426 288H330Q270 288 242 271T214 211T242 151T330 134ZM402 566H352Q292 566 264 550T236 494T264 439T352 422H402Q462 422 490 438T518 494T490
549T402 566ZM332 704H424Q481 704 528 693T615 659T676 596T698 501Q698 426 632 372Q726 322 726 210Q726 107 648 52T447 -4H309Q186 -4 108 51T30 210Q30 322 124 372Q58 426 58 501Q58 555 80 595T141 659T227 693T332 704Z" />
<glyph unicode="9" glyph-name="nine" horiz-adv-x="743" d="M519 266H313Q174 266 102 316T30 485T102 653T313 704H420Q561 704 632 650T703 464V248Q703 109 633 53T422 -4H298Q188 -4 115 44T41 166Q41 195 58 207T91 220H149Q187 220 215 174Q239 134 315
134H405Q465 134 492 158T519 248V266ZM330 404H519V464Q519 524 492 545T403 566H330Q270 566 242 549T214 485T242 422T330 404Z" />
<glyph unicode=":" glyph-name="colon" horiz-adv-x="272" d="M40 61V92Q40 124 57 141T106 158H166Q198 158 215 141T232 92V61Q232 30 215 13T166 -5H106Q74 -5 57 12T40 61ZM40 448V479Q40 510 57 527T106 545H166Q198 545 215 528T232 479V448Q232 416 215
399T166 382H106Q74 382 57 399T40 448Z" />
<glyph unicode=";" glyph-name="semicolon" horiz-adv-x="274" d="M222 82L164 -65Q154 -89 134 -105T87 -121H68Q37 -121 27 -105T23 -55L52 102Q56 125 78 141T126 158H166Q205 158 220 138T222 82ZM42 448V479Q42 510 59 527T108 545H168Q200 545 217 528T234
479V448Q234 416 217 399T168 382H108Q76 382 59 399T42 448Z" />
<glyph unicode="&lt;" glyph-name="less" horiz-adv-x="420" d="M30 255V279Q30 311 59 332L337 529Q354 540 367 534T380 509V425Q380 389 337 359L207 267L337 175Q380 145 380 109V25Q380 7 367 1T337 5L59 202Q30 223 30 255Z" />
<glyph unicode="=" glyph-name="equal" horiz-adv-x="488" d="M60 467H428Q441 467 449 459T458 437V379Q458 366 450 358T428 349H60Q47 349 39 357T30 379V437Q30 450 38 458T60 467ZM60 261H428Q441 261 449 253T458 231V173Q458 160 450 152T428 143H60Q47
143 39 151T30 173V231Q30 244 38 252T60 261Z" />
<glyph unicode="&gt;" glyph-name="greater" horiz-adv-x="420" d="M390 279V255Q390 223 361 202L83 5Q66 -6 53 0T40 25V109Q40 145 83 175L213 267L83 359Q40 389 40 425V509Q40 527 53 533T83 529L361 332Q390 311 390 279Z" />
<glyph unicode="?" glyph-name="question" horiz-adv-x="655" d="M215 61V92Q215 124 232 141T281 158H341Q372 158 389 141T407 92V61Q407 30 390 13T341 -5H281Q250 -5 233 12T215 61ZM365 208H255Q242 208 234 216T225 238Q225 280 241 312T281 362T333 397T385
424T425 451T441 486Q441 528 415 547T330 566H305Q224 566 194 506Q172 460 128 460H70Q61 460 51 463T31 480T20 514Q20 597 104 650T288 704H344Q625 704 625 486Q625 437 602 401T544 346T476 312T419 279T395 238Q395 225 387 217T365 208Z" />
<glyph unicode="@" glyph-name="at" horiz-adv-x="830" d="M392 203Q444 203 490 233V285H389Q365 285 351 274T337 245Q337 226 351 215T392 203ZM425 38Q491 38 531 45T581 53H595Q608 53 616 44T625 21V-25Q625 -36 617 -44T595 -55Q520 -70 425 -70Q243 -70
137 33T30 320T136 606T425 710Q600 710 700 629T800 374Q800 268 743 201T569 134H522Q513 134 507 140T501 154V165Q449 128 380 128Q310 128 266 158T222 245Q222 300 266 330T380 360H490Q490 399 474 414T422 430Q377 430 357 408Q345 390 319 390H269Q261
390 255 395T249 410Q249 506 431 506Q510 506 558 470T607 360V229Q675 229 675 374Q675 491 609 546T425 602Q298 602 227 525T155 320T227 116T425 38Z" />
<glyph unicode="A" glyph-name="A" horiz-adv-x="834" d="M12 45L135 510Q185 700 459 700H722Q740 700 752 687T764 655V45Q764 26 751 13T718 0H626Q606 0 593 13T580 46V169H233L200 46Q195 26 178 13T142 0H46Q27 0 17 13T12 45ZM312 464L269 307H580V562H441Q394
562 359 536T312 464Z" />
<glyph unicode="B" glyph-name="B" horiz-adv-x="825" d="M70 46V654Q70 673 83 686T116 700H513Q580 700 635 682T728 617T767 501Q767 426 701 372Q795 322 795 210Q795 110 720 55T536 0H116Q97 0 84 13T70 46ZM515 568H254V428H515Q546 428 564 446T583 498T565
549T515 568ZM533 300H254V132H533Q571 132 591 154T611 216T591 277T533 300Z" />
<glyph unicode="C" glyph-name="C" horiz-adv-x="817" d="M30 169T30 350T120 617T392 704H501Q612 704 697 647T782 489Q782 460 765 448T732 435H674Q629 435 604 489Q568 566 484 566H397Q290 566 252 520T214 350T252 180T397 134H494Q578 134 614 211Q639
265 684 265H742Q751 265 761 262T781 245T792 211Q792 111 707 54T511 -4H392Q211 -4 121 82Z" />
<glyph unicode="D" glyph-name="D" horiz-adv-x="824" d="M116 700H389Q601 700 697 616T794 350T698 85T389 0H116Q97 0 84 13T70 45V653Q70 673 83 686T116 700ZM384 562H254V138H384Q515 138 562 186T610 350T563 514T384 562Z" />
<glyph unicode="E" glyph-name="E" horiz-adv-x="745" d="M679 700Q698 700 711 687T725 654V608Q725 589 712 576T679 562H254V420H620Q639 420 652 407T666 374V328Q666 309 653 296T620 282H254V138H678Q697 138 710 125T723 93V46Q723 27 710 14T677 0H116Q97
0 84 13T70 47V655Q70 674 83 687T116 700H679Z" />
<glyph unicode="F" glyph-name="F" horiz-adv-x="735" d="M208 0H116Q97 0 84 13T70 47V655Q70 674 83 687T116 700H679Q698 700 711 687T725 654V608Q725 589 712 576T679 562H254V390H600Q619 390 632 377T646 344V298Q646 279 633 266T600 252H254V47Q254 27
241 14T208 0Z" />
<glyph unicode="G" glyph-name="G" horiz-adv-x="828" d="M617 250H507Q488 250 475 263T461 296V334Q461 353 474 366T507 380H752Q771 380 784 367T798 334V280Q798 143 716 70T475 -4H365Q203 -4 117 83T30 350Q30 531 120 617T392 704H501Q609 704 695 653T782
524Q782 495 765 483T732 470H674Q632 470 608 516Q582 566 484 566H397Q290 566 252 520T214 350Q214 228 248 181T370 134H470Q549 134 582 164T617 250Z" />
<glyph unicode="H" glyph-name="H" horiz-adv-x="844" d="M590 45V296H254V45Q254 26 241 13T208 0H117Q98 0 84 13T70 46V654Q70 673 83 686T117 700H208Q227 700 240 687T254 654V434H590V654Q590 673 603 686T636 700H727Q747 700 760 687T774 654V46Q774 27
760 14T727 0H636Q617 0 604 13T590 45Z" />
<glyph unicode="I" glyph-name="I" horiz-adv-x="324" d="M70 45V654Q70 673 83 686T116 700H207Q227 700 240 687T254 654V46Q254 27 240 14T207 0H116Q97 0 84 13T70 45Z" />
<glyph unicode="J" glyph-name="J" horiz-adv-x="552" d="M184 0H46Q27 0 14 13T0 46V101Q0 120 13 133T46 147H62Q75 147 102 143T144 138H179Q247 138 277 166T308 260V654Q308 673 321 686T354 700H445Q465 700 478 687T492 654V261Q492 136 409 68T184 0Z" />
<glyph unicode="K" glyph-name="K" horiz-adv-x="795" d="M208 0H116Q97 0 84 14T70 47V654Q70 673 83 687T116 701H208Q227 701 240 687T254 654V420H359Q402 420 434 443T496 519L572 654Q598 701 642 701H755Q774 701 777 688T770 654L664 462Q641 420 613
393T538 354Q570 347 604 314T664 240L786 46Q798 26 793 13T769 0H657Q638 0 616 13T582 46L496 182Q465 232 434 257T359 282H254V45Q254 26 241 13T208 0Z" />
<glyph unicode="L" glyph-name="L" horiz-adv-x="735" d="M116 700H208Q227 700 240 687T254 653V138H679Q698 138 711 125T725 92V46Q725 27 712 14T679 0H116Q97 0 84 13T70 45V653Q70 673 83 686T116 700Z" />
<glyph unicode="M" glyph-name="M" horiz-adv-x="1034" d="M552 0H482Q463 0 446 13T422 44L250 524V47Q250 27 237 14T204 0H116Q97 0 84 13T70 47V653Q70 673 83 686T115 700H314Q333 700 350 687T373 654L517 237L661 654Q667 673 684 686T720 700H919Q938
700 951 687T964 653V47Q964 27 951 14T918 0H830Q811 0 798 13T784 47V524L612 44Q605 26 588 13T552 0Z" />
<glyph unicode="N" glyph-name="N" horiz-adv-x="867" d="M202 0H116Q97 0 84 13T70 46V654Q70 673 83 686T115 700H259Q276 700 295 687T326 654L621 200V655Q621 674 634 687T667 700H751Q770 700 783 687T797 654V46Q797 27 784 14T751 0H589Q570 0 550 13T518
46L248 465V46Q248 27 235 14T202 0Z" />
<glyph unicode="O" glyph-name="O" horiz-adv-x="846" d="M533 583T423 583T264 525T214 350T263 176T423 117T582 175T632 350T583 524ZM30 160T30 350T130 627T423 715T716 628T816 350T716 73T423 -15T130 72Z" />
<glyph unicode="P" glyph-name="P" horiz-adv-x="803" d="M432 562H254V294H432Q514 294 556 321T599 428T557 534T432 562ZM115 700H488Q783 700 783 428T488 156H254V46Q254 27 241 14T208 0H116Q97 0 84 13T70 46V654Q70 673 83 686T115 700Z" />
<glyph unicode="Q" glyph-name="Q" horiz-adv-x="844" d="M30 169T30 355T130 628T423 715Q618 715 717 633T816 365Q816 318 807 278T778 206T749 161T720 127H798Q818 127 831 114T844 81V41Q844 22 831 9T798 -5H423Q230 -5 130 82ZM423 583Q314 583 264 525T214
355T264 185T423 127Q632 127 632 365Q632 476 583 529T423 583Z" />
<glyph unicode="R" glyph-name="R" horiz-adv-x="808" d="M373 256H254V46Q254 27 241 14T208 0H116Q97 0 84 13T70 46V654Q70 673 83 686T115 700H518Q630 700 701 640T773 478Q773 336 589 300Q618 289 643 263T700 187L789 46Q801 26 796 13T772 0H655Q636
0 614 13T580 46L497 176Q446 256 373 256ZM462 562H254V394H462Q512 394 550 414T589 478T551 542T462 562Z" />
<glyph unicode="S" glyph-name="S" horiz-adv-x="779" d="M36 500Q36 598 106 651T346 704H470Q570 704 650 653T731 524Q731 495 714 483T681 470H623Q579 470 557 516Q533 566 453 566H306Q220 566 220 510Q220 479 274 460T406 425T562 389T694 320T749 200Q749
102 679 49T439 -4H291Q191 -4 111 47T30 176Q30 205 47 217T80 230H138Q182 230 204 184Q228 134 308 134H479Q565 134 565 190Q565 213 536 229T460 257T357 279T244 306T141 345T65 407T36 500Z" />
<glyph unicode="T" glyph-name="T" horiz-adv-x="732" d="M56 700H676Q696 700 709 687T722 654V608Q722 588 709 575T676 562H458V45Q458 26 445 13T412 0H320Q301 0 288 13T274 45V562H56Q36 562 23 575T10 608V654Q10 674 23 687T56 700Z" />
<glyph unicode="U" glyph-name="U" horiz-adv-x="824" d="M373 134H451Q517 134 548 169T580 276V654Q580 673 593 686T626 700H717Q737 700 750 687T764 654V277Q764 143 686 70T456 -4H368Q217 -4 139 69T60 277V654Q60 673 73 686T107 700H198Q217 700 230
687T244 654V276Q244 204 275 169T373 134Z" />
<glyph unicode="V" glyph-name="V" horiz-adv-x="798" d="M434 0H364Q317 0 294 50L13 659Q6 674 17 687T45 700H152Q190 700 210 654L399 233L588 654Q608 700 646 700H753Q770 700 781 687T785 659L504 50Q481 0 434 0Z" />
<glyph unicode="W" glyph-name="W" horiz-adv-x="1120" d="M515 700H605Q649 700 663 654L782 267L911 654Q918 674 934 687T969 700H1076Q1093 700 1103 688T1108 659L890 50Q872 0 820 0H749Q695 0 679 50L560 426L441 50Q425 0 371 0H300Q248 0 230 50L12 659Q6
675 16 687T44 700H151Q170 700 186 687T209 654L338 267L457 654Q471 700 515 700Z" />
<glyph unicode="X" glyph-name="X" horiz-adv-x="750" d="M241 654L375 484L509 654Q545 700 594 700H699Q719 700 724 686T716 654L484 360L730 46Q744 28 739 14T713 0H609Q560 0 524 46L375 236L226 46Q190 0 141 0H37Q17 0 12 14T20 46L266 360L34 654Q20
672 25 686T51 700H156Q205 700 241 654Z" />
<glyph unicode="Y" glyph-name="Y" horiz-adv-x="742" d="M279 45V250L18 654Q6 671 11 685T35 700H128Q183 700 213 654L371 410L529 654Q559 700 614 700H707Q726 700 731 686T724 654L463 250V45Q463 26 450 13T417 0H325Q306 0 293 13T279 45Z" />
<glyph unicode="Z" glyph-name="Z" horiz-adv-x="717" d="M71 700H641Q660 700 673 687T687 654V599Q687 579 679 561T663 534T641 512L257 138H646Q666 138 679 125T692 92V46Q692 26 679 13T646 0H79Q60 0 47 13T33 46V100Q33 147 79 193L451 562H71Q52 562
39 575T25 608V654Q25 674 38 687T71 700Z" />
<glyph unicode="[" glyph-name="bracketleft" horiz-adv-x="389" d="M229 -17H349Q362 -17 370 -25T379 -47V-100Q379 -113 371 -121T349 -130H100Q87 -130 79 -122T70 -100V710Q70 723 78 731T100 740H349Q362 740 370 732T379 710V657Q379 644 371 636T349 627H229V-17Z"
/>
<glyph unicode="\" glyph-name="backslash" horiz-adv-x="515" d="M24 700H106Q168 700 191 654L508 46Q518 28 514 14T491 0H409Q347 0 324 46L7 654Q-3 672 1 686T24 700Z" />
<glyph unicode="]" glyph-name="bracketright" horiz-adv-x="389" d="M40 -17H160V627H40Q27 627 19 635T10 657V710Q10 723 18 731T40 740H289Q302 740 310 732T319 710V-100Q319 -113 311 -121T289 -130H40Q27 -130 19 -122T10 -100V-47Q10 -34 18 -26T40 -17Z" />
<glyph unicode="^" glyph-name="asciicircum" horiz-adv-x="532" d="M230 700H302Q339 700 368 657L525 420Q536 404 530 391T505 377H428Q390 377 363 418L266 564L169 418Q142 377 104 377H27Q9 377 3 390T7 420L164 657Q193 700 230 700Z" />
<glyph unicode="_" glyph-name="underscore" horiz-adv-x="400" d="M30 0H370Q383 0 391 -8T400 -30V-88Q400 -101 392 -109T370 -118H30Q17 -118 9 -110T0 -88V-30Q0 -17 8 -9T30 0Z" />
<glyph unicode="`" glyph-name="grave" horiz-adv-x="275" d="M109 476L29 624Q12 658 28 679T85 700H125Q149 700 170 684T199 644L250 486Q271 420 205 420H186Q139 420 109 476Z" />
<glyph unicode="a" glyph-name="a" horiz-adv-x="652" d="M278 101Q353 101 423 145V221H273Q239 221 219 205T199 162Q199 135 219 118T278 101ZM323 434Q255 434 228 401Q207 375 172 375H99Q86 375 78 383T69 405Q69 545 335 545Q451 545 521 493T592 332V30Q592
17 584 9T562 0H468Q455 0 447 8T438 30V45Q361 -10 261 -10Q159 -10 95 35T30 162T94 288T261 332H423Q423 389 399 411T323 434Z" />
<glyph unicode="b" glyph-name="b" horiz-adv-x="662" d="M229 407V119Q271 108 332 108Q401 108 429 145T458 267T430 389T335 427Q292 427 229 407ZM60 45V670Q60 683 68 691T90 700H199Q212 700 220 692T229 670V520Q308 545 370 545Q490 545 561 474T632 267Q632
-10 322 -10Q251 -10 175 6T60 45Z" />
<glyph unicode="c" glyph-name="c" horiz-adv-x="621" d="M332 427Q262 427 233 390T204 267Q204 183 234 146T337 108Q413 108 442 154Q465 190 498 190H571Q584 190 592 182T601 160Q601 76 529 33T325 -10Q182 -10 106 60T30 267Q30 404 105 474T320 545Q451
545 523 502T596 375Q596 362 588 354T566 345H493Q460 345 437 381Q408 427 332 427Z" />
<glyph unicode="d" glyph-name="d" horiz-adv-x="662" d="M317 108Q363 108 433 152V407Q370 427 327 427Q260 427 232 389T204 267Q204 184 230 146T317 108ZM277 -10Q167 -10 99 62T30 267Q30 402 101 473T292 545Q354 545 433 520V670Q433 683 441 691T463
700H572Q585 700 593 692T602 670V30Q602 17 594 9T572 0H478Q465 0 457 8T448 30V45Q371 -10 277 -10Z" />
<glyph unicode="e" glyph-name="e" horiz-adv-x="630" d="M570 216H202Q207 156 236 129T327 101Q396 101 423 134Q444 160 479 160H552Q565 160 573 152T582 130Q582 -10 315 -10Q180 -10 105 61T30 267T105 473T315 545Q450 545 525 475T600 274V246Q600 233
592 225T570 216ZM423 434T315 434T201 319H428Q423 434 315 434Z" />
<glyph unicode="f" glyph-name="f" horiz-adv-x="480" d="M60 30V460Q60 596 122 653T340 710Q420 710 470 700Q483 698 491 690T500 670V616Q500 603 492 595T470 586H452Q442 586 420 590T385 594Q288 594 259 568T229 460V452H406Q419 452 427 444T436 422V364Q436
351 428 343T406 334H229V30Q229 17 221 9T199 0H90Q77 0 69 8T60 30Z" />
<glyph unicode="g" glyph-name="g" horiz-adv-x="652" d="M30 291Q30 412 107 478T330 545Q401 545 477 529T592 490V38Q592 -71 520 -123T325 -175Q189 -175 119 -143T49 -35Q49 -22 57 -14T79 -5H152Q187 -5 208 -31Q235 -64 313 -64Q372 -64 397 -42T423 38V61Q345
41 277 41Q166 41 98 108T30 291ZM204 291Q204 159 317 159Q364 159 423 174V416Q381 427 320 427Q204 427 204 291Z" />
<glyph unicode="h" glyph-name="h" horiz-adv-x="682" d="M453 30V310Q453 427 360 427Q299 427 229 357V30Q229 17 221 9T199 0H90Q77 0 69 8T60 30V670Q60 683 68 691T90 700H199Q212 700 220 692T229 670V474Q313 545 400 545Q503 545 562 487T622 310V30Q622
17 614 9T592 0H483Q470 0 462 8T453 30Z" />
<glyph unicode="i" glyph-name="i" horiz-adv-x="293" d="M201 0H92Q79 0 71 8T62 30V493Q62 506 70 514T92 523H201Q214 523 222 515T231 493V30Q231 17 223 9T201 0ZM60 637V654Q60 680 75 695T116 710H177Q203 710 218 695T233 654V637Q233 611 218 596T177
581H116Q90 581 75 596T60 637Z" />
<glyph unicode="j" glyph-name="j" horiz-adv-x="301" d="M239 493V55Q239 -175 50 -175Q-17 -175 -60 -165Q-90 -158 -90 -135V-82Q-90 -69 -82 -61T-60 -52H-45Q-36 -52 -21 -55T5 -59Q32 -59 51 -32T70 55V493Q70 506 78 514T100 523H209Q222 523 230 515T239
493ZM68 637V654Q68 680 83 695T124 710H185Q211 710 226 695T241 654V637Q241 611 226 596T185 581H124Q98 581 83 596T68 637Z" />
<glyph unicode="k" glyph-name="k" horiz-adv-x="610" d="M229 670V323Q314 323 345 389L392 489Q402 510 421 522T462 535H554Q592 535 571 489L508 356Q492 323 464 299T404 268Q464 250 508 180L591 46Q603 26 598 13T574 0H482Q435 0 407 46L345 147Q305 212
229 212V30Q229 17 221 9T199 0H90Q77 0 69 8T60 30V670Q60 683 68 691T90 700H199Q212 700 220 692T229 670Z" />
<glyph unicode="l" glyph-name="l" horiz-adv-x="289" d="M199 0H90Q77 0 69 8T60 30V670Q60 683 68 691T90 700H199Q212 700 220 692T229 670V30Q229 17 221 9T199 0Z" />
<glyph unicode="m" glyph-name="m" horiz-adv-x="1005" d="M418 30V310Q418 427 333 427Q279 427 229 357V30Q229 17 221 9T199 0H90Q77 0 69 8T60 30V505Q60 518 68 526T90 535H199Q212 535 220 527T229 505V474Q264 508 298 526T380 545Q494 545 552 451Q643
545 738 545Q834 545 889 488T945 310V30Q945 17 937 9T915 0H806Q793 0 785 8T776 30V310Q776 427 691 427Q639 427 584 352Q587 331 587 310V30Q587 17 579 9T557 0H448Q435 0 427 8T418 30Z" />
<glyph unicode="n" glyph-name="n" horiz-adv-x="682" d="M453 30V310Q453 427 360 427Q299 427 229 357V30Q229 17 221 9T199 0H90Q77 0 69 8T60 30V505Q60 518 68 526T90 535H199Q212 535 220 527T229 505V474Q313 545 400 545Q503 545 562 487T622 310V30Q622
17 614 9T592 0H483Q470 0 462 8T453 30Z" />
<glyph unicode="o" glyph-name="o" horiz-adv-x="650" d="M260 101T325 101T420 141T451 268T421 394T325 434T230 395T199 268T229 141ZM182 545T325 545T544 475T620 268T544 61T325 -10T106 60T30 268T106 475Z" />
<glyph unicode="p" glyph-name="p" horiz-adv-x="662" d="M345 427Q299 427 229 383V128Q292 108 335 108Q402 108 430 146T458 268Q458 351 432 389T345 427ZM385 545Q495 545 563 473T632 268Q632 133 561 62T370 -10Q308 -10 229 15V-135Q229 -148 221 -156T199
-165H90Q77 -165 69 -157T60 -135V505Q60 518 68 526T90 535H184Q197 535 205 527T214 505V490Q291 545 385 545Z" />
<glyph unicode="q" glyph-name="q" horiz-adv-x="662" d="M330 427Q261 427 233 390T204 268T232 146T327 108Q370 108 433 128V416Q391 427 330 427ZM340 545Q411 545 487 529T602 490V-135Q602 -148 594 -156T572 -165H463Q450 -165 442 -157T433 -135V15Q354
-10 292 -10Q172 -10 101 61T30 268Q30 545 340 545Z" />
<glyph unicode="r" glyph-name="r" horiz-adv-x="486" d="M476 515V441Q476 428 468 420T446 411H430Q419 411 394 412T355 414Q289 414 229 342V30Q229 17 221 9T199 0H90Q77 0 69 8T60 30V505Q60 518 68 526T90 535H199Q212 535 220 527T229 505V474Q279 510
325 527T446 545Q459 545 467 537T476 515Z" />
<glyph unicode="s" glyph-name="s" horiz-adv-x="598" d="M568 148Q568 67 496 29T299 -10Q31 -10 31 130Q31 143 39 151T61 160H134Q169 160 190 134Q217 101 287 101Q399 101 399 148Q399 170 361 184T269 210T160 239T68 293T30 387Q30 467 100 506T284 545Q552
545 552 405Q552 392 544 384T522 375H449Q414 375 393 401Q366 434 296 434Q199 434 199 387Q199 365 237 351T329 325T437 297T530 243T568 148Z" />
<glyph unicode="t" glyph-name="t" horiz-adv-x="450" d="M400 0Q350 -10 270 -10Q60 -10 60 210V670Q60 683 68 691T90 700H199Q212 700 220 692T229 670V507H365Q378 507 386 499T395 477V419Q395 406 387 398T365 389H229V210Q229 160 252 133T315 106Q328
106 350 109T382 112H400Q413 112 421 104T430 82V30Q430 19 422 11T400 0Z" />
<glyph unicode="u" glyph-name="u" horiz-adv-x="682" d="M229 505V225Q229 108 322 108Q383 108 453 178V505Q453 518 461 526T483 535H592Q605 535 613 527T622 505V30Q622 17 614 9T592 0H483Q470 0 462 8T453 30V61Q369 -10 282 -10Q179 -10 120 48T60 225V505Q60
518 68 526T90 535H199Q212 535 220 527T229 505Z" />
<glyph unicode="v" glyph-name="v" horiz-adv-x="656" d="M364 0H292Q272 0 254 12T226 43L15 492Q7 510 12 522T35 535H129Q150 535 168 523T195 492L328 188L461 492Q469 511 487 523T527 535H621Q638 535 643 523T641 492L430 43Q421 24 403 12T364 0Z" />
<glyph unicode="w" glyph-name="w" horiz-adv-x="898" d="M406 535H492Q535 535 548 492L627 229L707 492Q714 512 732 523T773 535H864Q898 535 884 492L736 43Q729 23 712 12T674 0H605Q585 0 567 12T543 43L449 334L355 43Q349 24 331 12T293 0H224Q204 0 187
11T162 43L14 492Q0 535 34 535H125Q148 535 166 524T191 492L271 229L350 492Q363 535 406 535Z" />
<glyph unicode="x" glyph-name="x" horiz-adv-x="624" d="M231 492L312 369L393 492Q422 535 469 535H575Q586 535 592 528T598 512T590 492L431 268L601 43Q612 30 608 15T586 0H482Q437 0 406 43L312 170L218 43Q187 0 142 0H38Q21 0 17 15T23 43L193 268L34
492Q27 502 27 511T32 528T49 535H155Q202 535 231 492Z" />
<glyph unicode="y" glyph-name="y" horiz-adv-x="632" d="M228 -59Q297 -59 324 42Q241 42 186 92T90 270L17 506Q13 517 20 526T40 535H142Q156 535 169 526T186 502L250 295Q274 219 298 190T357 160L454 502Q458 516 469 525T495 535H598Q610 535 617 526T621
506L493 50Q459 -71 409 -123T273 -175Q199 -175 146 -165Q133 -163 125 -155T116 -135V-81Q116 -68 124 -60T146 -51H164Q175 -51 195 -55T228 -59Z" />
<glyph unicode="z" glyph-name="z" horiz-adv-x="559" d="M495 387L229 118H504Q517 118 525 110T534 88V30Q534 17 526 9T504 0H55Q42 0 34 8T25 30V77Q25 113 60 148L317 417H55Q42 417 34 425T25 447V505Q25 518 33 526T55 535H500Q513 535 521 527T530 505V458Q530
422 495 387Z" />
<glyph unicode="{" glyph-name="braceleft" horiz-adv-x="421" d="M173 305Q222 296 252 261T283 170V75Q283 33 306 8T361 -17H381Q394 -17 402 -25T411 -47V-100Q411 -113 403 -121T381 -130H333Q240 -130 183 -83T126 64V185Q126 211 110 228T70 246H50Q37
246 29 254T20 276V334Q20 347 28 355T50 364H70Q93 364 109 381T126 425V546Q126 646 183 693T333 740H381Q394 740 402 732T411 710V657Q411 644 403 636T381 627H361Q329 627 306 602T283 535V440Q283 384 253 349T173 305Z" />
<glyph unicode="|" glyph-name="bar" horiz-adv-x="309" d="M209 -165H100Q87 -165 79 -157T70 -135V670Q70 683 78 691T100 700H209Q222 700 230 692T239 670V-135Q239 -148 231 -156T209 -165Z" />
<glyph unicode="}" glyph-name="braceright" horiz-adv-x="421" d="M248 305Q199 314 169 349T138 440V535Q138 577 115 602T60 627H40Q27 627 19 635T10 657V710Q10 723 18 731T40 740H88Q181 740 238 693T295 546V425Q295 399 311 382T351 364H371Q384 364 392
356T401 334V276Q401 263 393 255T371 246H351Q328 246 312 229T295 185V64Q295 -36 238 -83T88 -130H40Q27 -130 19 -122T10 -100V-47Q10 -34 18 -26T40 -17H60Q92 -17 115 8T138 75V170Q138 226 168 261T248 305Z" />
<glyph unicode="~" glyph-name="asciitilde" horiz-adv-x="594" d="M564 372Q564 306 525 270T418 233Q359 233 302 258T208 283Q171 283 149 265T103 246H55Q44 246 37 253T30 271Q30 337 69 373T176 410Q235 410 292 385T386 360Q423 360 445 378T491 397H539Q550
397 557 390T564 372Z" />
</font>
</defs>
</svg>
